  0
SECTION
  2
HEADER
  9
$ACADVER
  1
AC1015
  9
$ACADMAINTVER
 70
    20
  9
$DWGCODEPAGE
  3
ANSI_932
  9
$INSBASE
 10
0.0
 20
0.0
 30
0.0
  9
$EXTMIN
 10
0.0000005962378964
 20
0.0000004583823738
 30
0.0
  9
$EXTMAX
 10
210.0000005962379
 20
297.0000004583824
 30
0.0
  9
$LIMMIN
 10
0.0
 20
0.0
  9
$LIMMAX
 10
210.0
 20
297.0
  9
$ORTHOMODE
 70
     1
  9
$REGENMODE
 70
     1
  9
$FILLMODE
 70
     1
  9
$QTEXTMODE
 70
     0
  9
$MIRRTEXT
 70
     0
  9
$LTSCALE
 40
1.0
  9
$ATTMODE
 70
     1
  9
$TEXTSIZE
 40
2.5
  9
$TRACEWID
 40
1.0
  9
$TEXTSTYLE
  7
STANDARD
  9
$CLAYER
  8
0
  9
$CELTYPE
  6
ByLayer
  9
$CECOLOR
 62
   256
  9
$CELTSCALE
 40
1.0
  9
$DISPSILH
 70
     0
  9
$DIMSCALE
 40
1.0
  9
$DIMASZ
 40
2.5
  9
$DIMEXO
 40
1.0
  9
$DIMDLI
 40
10.0
  9
$DIMRND
 40
0.0
  9
$DIMDLE
 40
0.0
  9
$DIMEXE
 40
1.0
  9
$DIMTP
 40
0.1
  9
$DIMTM
 40
0.1
  9
$DIMTXT
 40
3.0
  9
$DIMCEN
 40
0.0
  9
$DIMTSZ
 40
0.0
  9
$DIMTOL
 70
     0
  9
$DIMLIM
 70
     0
  9
$DIMTIH
 70
     0
  9
$DIMTOH
 70
     0
  9
$DIMSE1
 70
     0
  9
$DIMSE2
 70
     0
  9
$DIMTAD
 70
     1
  9
$DIMZIN
 70
     8
  9
$DIMBLK
  1

  9
$DIMASO
 70
     1
  9
$DIMSHO
 70
     1
  9
$DIMPOST
  1

  9
$DIMAPOST
  1
"
  9
$DIMALT
 70
     0
  9
$DIMALTD
 70
     2
  9
$DIMALTF
 40
0.0393701
  9
$DIMLFAC
 40
1.0
  9
$DIMTOFL
 70
     1
  9
$DIMTVP
 40
0.0
  9
$DIMTIX
 70
     0
  9
$DIMSOXD
 70
     0
  9
$DIMSAH
 70
     0
  9
$DIMBLK1
  1

  9
$DIMBLK2
  1

  9
$DIMSTYLE
  2
AM_ISO
  9
$DIMCLRD
 70
   256
  9
$DIMCLRE
 70
   256
  9
$DIMCLRT
 70
     2
  9
$DIMTFAC
 40
0.71
  9
$DIMGAP
 40
1.0
  9
$DIMJUST
 70
     0
  9
$DIMSD1
 70
     0
  9
$DIMSD2
 70
     0
  9
$DIMTOLJ
 70
     0
  9
$DIMTZIN
 70
     8
  9
$DIMALTZ
 70
     0
  9
$DIMALTTZ
 70
     0
  9
$DIMUPT
 70
     0
  9
$DIMDEC
 70
     2
  9
$DIMTDEC
 70
     2
  9
$DIMALTU
 70
     2
  9
$DIMALTTD
 70
     2
  9
$DIMTXSTY
  7
STANDARD
  9
$DIMAUNIT
 70
     0
  9
$DIMADEC
 70
     0
  9
$DIMALTRND
 40
0.0
  9
$DIMAZIN
 70
     2
  9
$DIMDSEP
 70
    46
  9
$DIMATFIT
 70
     3
  9
$DIMFRAC
 70
     0
  9
$DIMLDRBLK
  1

  9
$DIMLUNIT
 70
     2
  9
$DIMLWD
 70
    -1
  9
$DIMLWE
 70
    -1
  9
$DIMTMOVE
 70
     0
  9
$LUNITS
 70
     2
  9
$LUPREC
 70
     2
  9
$SKETCHINC
 40
1.0
  9
$FILLETRAD
 40
2.5
  9
$AUNITS
 70
     0
  9
$AUPREC
 70
     0
  9
$MENU
  1
.
  9
$ELEVATION
 40
0.0
  9
$PELEVATION
 40
0.0
  9
$THICKNESS
 40
0.0
  9
$LIMCHECK
 70
     0
  9
$CHAMFERA
 40
2.5
  9
$CHAMFERB
 40
2.5
  9
$CHAMFERC
 40
0.0
  9
$CHAMFERD
 40
0.0
  9
$SKPOLY
 70
     0
  9
$TDCREATE
 40
2454313.581725069
  9
$TDUCREATE
 40
2454313.206725069
  9
$TDUPDATE
 40
2455089.746963067
  9
$TDUUPDATE
 40
2455089.371963067
  9
$TDINDWG
 40
0.0119932639
  9
$TDUSRTIMER
 40
0.0119930787
  9
$USRTIMER
 70
     1
  9
$ANGBASE
 50
0.0
  9
$ANGDIR
 70
     0
  9
$PDMODE
 70
     0
  9
$PDSIZE
 40
0.0
  9
$PLINEWID
 40
0.0
  9
$SPLFRAME
 70
     0
  9
$SPLINETYPE
 70
     6
  9
$SPLINESEGS
 70
     8
  9
$HANDSEED
  5
110B
  9
$SURFTAB1
 70
     6
  9
$SURFTAB2
 70
     6
  9
$SURFTYPE
 70
     6
  9
$SURFU
 70
     6
  9
$SURFV
 70
     6
  9
$UCSBASE
  2

  9
$UCSNAME
  2

  9
$UCSORG
 10
0.0
 20
0.0
 30
0.0
  9
$UCSXDIR
 10
1.0
 20
0.0
 30
0.0
  9
$UCSYDIR
 10
0.0
 20
1.0
 30
0.0
  9
$UCSORTHOREF
  2

  9
$UCSORTHOVIEW
 70
     0
  9
$UCSORGTOP
 10
0.0
 20
0.0
 30
0.0
  9
$UCSORGBOTTOM
 10
0.0
 20
0.0
 30
0.0
  9
$UCSORGLEFT
 10
0.0
 20
0.0
 30
0.0
  9
$UCSORGRIGHT
 10
0.0
 20
0.0
 30
0.0
  9
$UCSORGFRONT
 10
0.0
 20
0.0
 30
0.0
  9
$UCSORGBACK
 10
0.0
 20
0.0
 30
0.0
  9
$PUCSBASE
  2

  9
$PUCSNAME
  2

  9
$PUCSORG
 10
0.0
 20
0.0
 30
0.0
  9
$PUCSXDIR
 10
1.0
 20
0.0
 30
0.0
  9
$PUCSYDIR
 10
0.0
 20
1.0
 30
0.0
  9
$PUCSORTHOREF
  2

  9
$PUCSORTHOVIEW
 70
     0
  9
$PUCSORGTOP
 10
0.0
 20
0.0
 30
0.0
  9
$PUCSORGBOTTOM
 10
0.0
 20
0.0
 30
0.0
  9
$PUCSORGLEFT
 10
0.0
 20
0.0
 30
0.0
  9
$PUCSORGRIGHT
 10
0.0
 20
0.0
 30
0.0
  9
$PUCSORGFRONT
 10
0.0
 20
0.0
 30
0.0
  9
$PUCSORGBACK
 10
0.0
 20
0.0
 30
0.0
  9
$USERI1
 70
     0
  9
$USERI2
 70
     0
  9
$USERI3
 70
     0
  9
$USERI4
 70
     0
  9
$USERI5
 70
     0
  9
$USERR1
 40
0.0
  9
$USERR2
 40
0.0
  9
$USERR3
 40
0.0
  9
$USERR4
 40
0.0
  9
$USERR5
 40
0.0
  9
$WORLDVIEW
 70
     1
  9
$SHADEDGE
 70
     3
  9
$SHADEDIF
 70
    70
  9
$TILEMODE
 70
     1
  9
$MAXACTVP
 70
    64
  9
$PINSBASE
 10
0.0
 20
0.0
 30
0.0
  9
$PLIMCHECK
 70
     0
  9
$PEXTMIN
 10
1.000000000000000E+20
 20
1.000000000000000E+20
 30
1.000000000000000E+20
  9
$PEXTMAX
 10
-1.000000000000000E+20
 20
-1.000000000000000E+20
 30
-1.000000000000000E+20
  9
$PLIMMIN
 10
0.0
 20
0.0
  9
$PLIMMAX
 10
420.0
 20
297.0
  9
$UNITMODE
 70
     0
  9
$VISRETAIN
 70
     1
  9
$PLINEGEN
 70
     0
  9
$PSLTSCALE
 70
     1
  9
$TREEDEPTH
 70
  3020
  9
$CMLSTYLE
  2
Standard
  9
$CMLJUST
 70
     0
  9
$CMLSCALE
 40
20.0
  9
$PROXYGRAPHICS
 70
     1
  9
$MEASUREMENT
 70
     1
  9
$CELWEIGHT
370
    -1
  9
$ENDCAPS
280
     0
  9
$JOINSTYLE
280
     0
  9
$LWDISPLAY
290
     0
  9
$INSUNITS
 70
     4
  9
$HYPERLINKBASE
  1

  9
$STYLESHEET
  1
MONOCHROME.CTB
  9
$XEDIT
290
     1
  9
$CEPSNTYPE
380
     0
  9
$PSTYLEMODE
290
     1
  9
$FINGERPRINTGUID
  2
{AD501973-C1A7-47D2-B6FF-3A238122188F}
  9
$VERSIONGUID
  2
{D4F1D1C0-9CC6-453D-8709-BDACB1769470}
  9
$EXTNAMES
290
     1
  9
$PSVPSCALE
 40
0.0
  9
$OLESTARTUP
290
     0
  0
ENDSEC
  0
SECTION
  2
CLASSES
  0
CLASS
  1
ACDBDICTIONARYWDFLT
  2
AcDbDictionaryWithDefault
  3
ObjectDBX Classes
 90
        0
280
     0
281
     0
  0
CLASS
  1
MATERIAL
  2
AcDbMaterial
  3
ObjectDBX Classes
 90
     1153
280
     0
281
     0
  0
CLASS
  1
VISUALSTYLE
  2
AcDbVisualStyle
  3
ObjectDBX Classes
 90
     4095
280
     0
281
     0
  0
CLASS
  1
SCALE
  2
AcDbScale
  3
ObjectDBX Classes
 90
     1153
280
     0
281
     0
  0
CLASS
  1
TABLESTYLE
  2
AcDbTableStyle
  3
ObjectDBX Classes
 90
     4095
280
     0
281
     0
  0
CLASS
  1
MLEADERSTYLE
  2
AcDbMLeaderStyle
  3
ACDB_MLEADERSTYLE_CLASS
 90
     4095
280
     0
281
     0
  0
CLASS
  1
AMGSETTINGSOBJ
  2
AmgSettingsObj
  3
"AcadM|Product Description: AutoCAD Mechanical|Company: Autodesk, Inc."
 90
     1024
280
     0
281
     0
  0
CLASS
  1
ACME_DOCUMENT
  2
AcMeDbDoc
  3
AcMeServices
 90
     1024
280
     0
281
     0
  0
CLASS
  1
ACMESCOPE
  2
AcMeScope
  3
AcMeServices
 90
     1024
280
     0
281
     0
  0
CLASS
  1
ACMECOMMANDHISTORY
  2
AcMeCommandHistory
  3
AcMeServices
 90
     1024
280
     0
281
     0
  0
CLASS
  1
ACIMSYSVARMAN
  2
AcImSysVarManager
  3
AcMeServices
 90
     1024
280
     0
281
     0
  0
CLASS
  1
ACIMINTSYSVAR
  2
AcImIntSysVar
  3
AcMeServices
 90
     1024
280
     0
281
     0
  0
CLASS
  1
ACMEDRAWINGMAN
  2
AcMeDrawingMan
  3
AcMeServices
 90
     1024
280
     0
281
     0
  0
CLASS
  1
ACMEVIEW
  2
AcMeView
  3
AcMeServices
 90
     1024
280
     0
281
     0
  0
CLASS
  1
ACDBENTITYCACHE
  2
AcMeEntityCache
  3
AcMeServices
 90
     1024
280
     0
281
     0
  0
CLASS
  1
GSMANAGER
  2
AcMeGSManager
  3
AcMeServices
 90
     1024
280
     0
281
     0
  0
CLASS
  1
AMDTINTERNALREACTOR
  2
AmdtInternalReactor
  3
AcMeServices
 90
     1024
280
     0
281
     0
  0
CLASS
  1
ACMESTATEMGR
  2
AcMeStateMgr
  3
AcMeServices
 90
     1024
280
     0
281
     0
  0
CLASS
  1
ACGREFMASTER
  2
AcGrefMaster
  3
AcAttribServices
 90
     1024
280
     0
281
     0
  0
CLASS
  1
AM_DRAWING_MGR
  2
AcDmDwgMgr
  3
AcMechDwgViewMgmt
 90
     1024
280
     0
281
     0
  0
CLASS
  1
AM_DWG_DOCUMENT
  2
AcDmDwgDocument
  3
AcMechDwgViewMgmt
 90
     1024
280
     0
281
     0
  0
CLASS
  1
AM_DWG_SHEET
  2
AcDmSheet
  3
AcMechDwgViewMgmt
 90
     1024
280
     0
281
     0
  0
CLASS
  1
AM_VIEWDIMPARMAP
  2
AcDmViewDimParMap
  3
AcMechDwgViewMgmt
 90
     1024
280
     0
281
     0
  0
CLASS
  1
ACIMREALSYSVAR
  2
AcImRealSysVar
  3
AcMeServices
 90
     1024
280
     0
281
     0
  0
CLASS
  1
AM_DWGMGR_NAME
  2
AcDmDwgMgrName
  3
AcMechDwgViewMgmt
 90
     1024
280
     0
281
     0
  0
CLASS
  1
ACME_DATABASE
  2
AcMeDbDatabase
  3
AcMeServices
 90
     1024
280
     0
281
     0
  0
CLASS
  1
ACRFINSADJUSTERMGR
  2
AcRfInsAdjusterMgr
  3
AcMeServices
 90
     1024
280
     0
281
     0
  0
CLASS
  1
ACGREFACADMASTER
  2
AcGrefacadMaster
  3
AcGrefServices
 90
     1024
280
     0
281
     0
  0
CLASS
  1
AMDTMENUSTATEMGR
  2
AmdtMenuStateMgr
  3
McadcomServices
 90
     1024
280
     0
281
     0
  0
CLASS
  1
AMDTMCOMMENUSTATE
  2
AmdtMcomMenuState
  3
McadcomServices
 90
     1024
280
     0
281
     0
  0
CLASS
  1
AMIMASTER
  2
AmiMaster
  3
AmiServices
 90
     1024
280
     0
281
     0
  0
CLASS
  1
MAPIAMMOUDLE
  2
MApiAmModule
  3
MApiAmServices
 90
     1024
280
     0
281
     0
  0
CLASS
  1
ACIMSTRSYSVAR
  2
AcImStrSysVar
  3
AcMeServices
 90
     1024
280
     0
281
     0
  0
CLASS
  1
AMDTADMENUSTATE
  2
AmdtAdMenuState
  3
DesignerServices
 90
     1024
280
     0
281
     0
  0
CLASS
  1
ADAPPL
  2
AcAdAppl
  3
DesignerServices
 90
     1024
280
     0
281
     0
  0
CLASS
  1
DEPMGR
  2
AcAdDepMgr
  3
DesignerServices
 90
     1024
280
     0
281
     0
  0
CLASS
  1
PARAMMGR
  2
AcAdParamMgr
  3
DesignerServices
 90
     1024
280
     0
281
     0
  0
CLASS
  1
PARAMSCOPE
  2
AcAdParamScope
  3
DesignerServices
 90
     1024
280
     0
281
     0
  0
CLASS
  1
NAMEDAPPL
  2
AcAdNamedAppl
  3
DesignerServices
 90
     1024
280
     0
281
     0
  0
CLASS
  1
AMDTDMMENUSTATE
  2
AmdtDmMenuState
  3
AcMechDwgViewMgmt
 90
     1024
280
     0
281
     0
  0
CLASS
  1
AMDTAMMENUSTATE
  2
AmdtAmMenuState
  3
DesignerAssemblies
 90
     1024
280
     0
281
     0
  0
CLASS
  1
ACAMPROJECT
  2
AcAmProject
  3
DesignerAssemblies
 90
     1024
280
     0
281
     0
  0
CLASS
  1
ACAMGRCOMPDEF
  2
AcAmGrCompDef
  3
DesignerAssemblies
 90
     1024
280
     0
281
     0
  0
CLASS
  1
ACCMCONTEXT
  2
AcCmContext
  3
DesignerAssemblies
 90
     1024
280
     0
281
     0
  0
CLASS
  1
ACAMCOMPDEF
  2
AcAmCompDef
  3
DesignerAssemblies
 90
     1024
280
     0
281
     0
  0
CLASS
  1
ACAMCOMPDEFMGR
  2
AcAmCompDefMgr
  3
DesignerAssemblies
 90
     1024
280
     0
281
     0
  0
CLASS
  1
AMCONTEXTMGR
  2
AcAmContextMgr
  3
DesignerAssemblies
 90
     1024
280
     0
281
     0
  0
CLASS
  1
ACAMCONTEXTMODELER
  2
AcAmContextModeler
  3
DesignerAssemblies
 90
     1024
280
     0
281
     0
  0
CLASS
  1
ACMDATADICTIONARY
  2
AcmDataDictionary
  3
"AcmSymBB|Product Description: AutoCAD Mechanical|Company: Autodesk, Inc."
 90
     1024
280
     0
281
     0
  0
CLASS
  1
ACMSTANDARDISO
  2
AcmStandardISO
  3
"Amdt_StdImp|Product Description: AutoCAD Mechanical|Company: Autodesk, Inc."
 90
     1024
280
     0
281
     0
  0
CLASS
  1
AMGOBJPROPCFG
  2
AmgObjPropCfg
  3
"AmgLay|Product Description: AutoCAD Mechanical|Company: Autodesk, Inc."
 90
     1025
280
     0
281
     0
  0
CLASS
  1
AMDTEDGESTANDARDISO13715
  2
AmdtEdgeStdISO13715
  3
"Amdt_StdImp|Product Description: AutoCAD Mechanical|Company: Autodesk, Inc."
 90
     1024
280
     0
281
     0
  0
CLASS
  1
ACMSURFSTANDARDISO2002
  2
AcmSurfTextStdISO2002
  3
"Amdt_StdImp|Product Description: AutoCAD Mechanical|Company: Autodesk, Inc."
 90
     1024
280
     0
281
     0
  0
CLASS
  1
ACMFCFSTANDARDISO
  2
AcmFCFStdISO
  3
"Amdt_StdImp|Product Description: AutoCAD Mechanical|Company: Autodesk, Inc."
 90
     1024
280
     0
281
     0
  0
CLASS
  1
ACMWELDSTANDARDISO
  2
AcmWeldingStdISO
  3
"Amdt_StdImp|Product Description: AutoCAD Mechanical|Company: Autodesk, Inc."
 90
     1024
280
     0
281
     0
  0
CLASS
  1
ACMIDSTANDARDISO
  2
AcmIdStdISO
  3
"Amdt_StdImp|Product Description: AutoCAD Mechanical|Company: Autodesk, Inc."
 90
     1024
280
     0
281
     0
  0
CLASS
  1
ACMDATUMSTANDARDISO
  2
AcmDatumStdISO
  3
"Amdt_StdImp|Product Description: AutoCAD Mechanical|Company: Autodesk, Inc."
 90
     1024
280
     0
281
     0
  0
CLASS
  1
ACMBOMSTANDARDISO
  2
AcmBOMStdISO
  3
"Amdt_StdImp|Product Description: AutoCAD Mechanical|Company: Autodesk, Inc."
 90
     1024
280
     0
281
     0
  0
CLASS
  1
ACMDETAILSTANDARDISO
  2
AmdtDetailSymStdISO
  3
"Amdt_StdImp|Product Description: AutoCAD Mechanical|Company: Autodesk, Inc."
 90
     1024
280
     0
281
     0
  0
CLASS
  1
ACMSECTIONSTANDARDISO2001
  2
AmdtSectionSymStdISO2001
  3
"Amdt_StdImp|Product Description: AutoCAD Mechanical|Company: Autodesk, Inc."
 90
     1024
280
     0
281
     0
  0
CLASS
  1
ACMCENTERLINESTANDARDISO
  2
AmdtCenterLineStdISO
  3
"Amdt_StdImp|Product Description: AutoCAD Mechanical|Company: Autodesk, Inc."
 90
     1024
280
     0
281
     0
  0
CLASS
  1
ACMTHREADLINESTANDARDISO
  2
AmdtThreadLineStdISO
  3
"Amdt_StdImp|Product Description: AutoCAD Mechanical|Company: Autodesk, Inc."
 90
     1024
280
     0
281
     0
  0
CLASS
  1
ACMNOTESTANDARDISO
  2
AmdtNoteStdISO
  3
"Amdt_StdImp|Product Description: AutoCAD Mechanical|Company: Autodesk, Inc."
 90
     1024
280
     0
281
     0
  0
CLASS
  1
ACMTAPERSTANDARDISO
  2
AcmTaperStdISO
  3
"Amdt_StdImp|Product Description: AutoCAD Mechanical|Company: Autodesk, Inc."
 90
     1024
280
     0
281
     0
  0
CLASS
  1
ACMANOOTATIONVIEWSTANDARDISO
  2
AmdtAnViewStdISO
  3
"Amdt_StdImp|Product Description: AutoCAD Mechanical|Company: Autodesk, Inc."
 90
     1024
280
     0
281
     0
  0
CLASS
  1
AMDTNOTETEMPLATEDB
  2
AmdtNoteTemplateDB
  3
AcmSymBB|Product Description: AutoCAD Mechanical|Company: Autodesk, Inc.
 90
     1024
280
     0
281
     0
  0
CLASS
  1
ACAMGLAYSTD
  2
AcAmgLayStd
  3
"AmgLay|Product Description: AutoCAD Mechanical|Company: Autodesk, Inc."
 90
     1024
280
     0
281
     0
  0
CLASS
  1
ACAMGDIMSTD
  2
AcAmgDimStd
  3
"AmgDim|Product Description: AutoCAD Mechanical|Company: Autodesk, Inc."
 90
     1024
280
     0
281
     0
  0
CLASS
  1
ACAMGHOLECHARTSTDISO
  2
AcAmgHoleChartStdISO
  3
AmgDim|Product Description: AutoCAD Mechanical|Company: Autodesk, Inc.
 90
     1024
280
     0
281
     0
  0
CLASS
  1
ACAMGTITLESTD
  2
AcAmgTitleStd
  3
"AmgTitle|Product Description: AutoCAD Mechanical|Company: Autodesk, Inc."
 90
     4095
280
     0
281
     0
  0
CLASS
  1
CATALOGSTATE
  2
AcAmCatalogState
  3
DesignerAssemblies
 90
     1024
280
     0
281
     0
  0
CLASS
  1
ACAMGRCOMPDEFSET
  2
AcAmGrCompDefSet
  3
DesignerAssemblies
 90
     1024
280
     0
281
     0
  0
CLASS
  1
AMDTBROWSERDBTAB
  2
AmdtBrowserDbTab
  3
McadcomServices
 90
     1024
280
     0
281
     0
  0
CLASS
  1
CBROWSERAPPOBJECT
  2
CBrowserAppObject
  3
McadcomServices
 90
     1024
280
     0
281
     0
  0
CLASS
  1
DM_PLACEHOLDER
  2
AcDmSelsetPlaceholder
  3
AcMechDwgViewMgmt
 90
     1024
280
     0
281
     0
  0
CLASS
  1
SORTENTSTABLE
  2
AcDbSortentsTable
  3
ObjectDBX Classes
 90
    32768
280
     0
281
     0
  0
CLASS
  1
ACMDATAENTRYBLOCK
  2
AcmDataEntryBlock
  3
AcmSymBB|Product Description: AutoCAD Mechanical|Company: Autodesk, Inc.
 90
    33792
280
     0
281
     0
  0
CLASS
  1
ACAMGFILTERDAT
  2
AcAmgFilterDat
  3
"AcadM|Product Description: AutoCAD Mechanical|Company: Autodesk, Inc."
 90
    33792
280
     0
281
     0
  0
CLASS
  1
CAMSSTRUCTBTNSTATE
  2
StructBtnState
  3
DesignerAssemblies
 90
    33792
280
     0
281
     0
  0
CLASS
  1
CELLSTYLEMAP
  2
AcDbCellStyleMap
  3
ObjectDBX Classes
 90
     1152
280
     0
281
     0
  0
CLASS
  1
DICTIONARYVAR
  2
AcDbDictionaryVar
  3
ObjectDBX Classes
 90
        0
280
     0
281
     0
  0
CLASS
  1
ACMSTANDARDANSI
  2
AcmStandardANSI
  3
"Amdt_StdImp|Product Description: AutoCAD Mechanical|Company: Autodesk, Inc."
 90
     1024
280
     0
281
     0
  0
CLASS
  1
ACMSURFSTANDARDANSI
  2
AcmSurfTextStdANSI
  3
"Amdt_StdImp|Product Description: AutoCAD Mechanical|Company: Autodesk, Inc."
 90
     1024
280
     0
281
     0
  0
CLASS
  1
ACMFCFSTANDARDANSI
  2
AcmFCFStdANSI
  3
"Amdt_StdImp|Product Description: AutoCAD Mechanical|Company: Autodesk, Inc."
 90
     1024
280
     0
281
     0
  0
CLASS
  1
ACMWELDSTANDARDANSI
  2
AcmWeldingStdANSI
  3
"Amdt_StdImp|Product Description: AutoCAD Mechanical|Company: Autodesk, Inc."
 90
     1024
280
     0
281
     0
  0
CLASS
  1
ACMIDSTANDARDANSI
  2
AcmIdStdANSI
  3
"Amdt_StdImp|Product Description: AutoCAD Mechanical|Company: Autodesk, Inc."
 90
     1024
280
     0
281
     0
  0
CLASS
  1
ACMDATUMSTANDARDANSI
  2
AcmDatumStdANSI
  3
"Amdt_StdImp|Product Description: AutoCAD Mechanical|Company: Autodesk, Inc."
 90
     1024
280
     0
281
     0
  0
CLASS
  1
ACMBOMSTANDARDANSI
  2
AcmBOMStdANSI
  3
"Amdt_StdImp|Product Description: AutoCAD Mechanical|Company: Autodesk, Inc."
 90
     1024
280
     0
281
     0
  0
CLASS
  1
ACMDETAILSTANDARDANSI
  2
AmdtDetailSymStdANSI
  3
"Amdt_StdImp|Product Description: AutoCAD Mechanical|Company: Autodesk, Inc."
 90
     1024
280
     0
281
     0
  0
CLASS
  1
ACMSECTIONSTANDARDANSI
  2
AmdtSectionSymStdANSI
  3
"Amdt_StdImp|Product Description: AutoCAD Mechanical|Company: Autodesk, Inc."
 90
     1024
280
     0
281
     0
  0
CLASS
  1
ACMCENTERLINESTANDARDANSI
  2
AmdtCenterLineStdANSI
  3
"Amdt_StdImp|Product Description: AutoCAD Mechanical|Company: Autodesk, Inc."
 90
     1024
280
     0
281
     0
  0
CLASS
  1
ACMTHREADLINESTANDARDANSI
  2
AmdtThreadLineStdANSI
  3
"Amdt_StdImp|Product Description: AutoCAD Mechanical|Company: Autodesk, Inc."
 90
     1024
280
     0
281
     0
  0
CLASS
  1
ACMNOTESTANDARDANSI
  2
AmdtNoteStdANSI
  3
"Amdt_StdImp|Product Description: AutoCAD Mechanical|Company: Autodesk, Inc."
 90
     1024
280
     0
281
     0
  0
CLASS
  1
ACMTAPERSTANDARDANSI
  2
AcmTaperStdANSI
  3
"Amdt_StdImp|Product Description: AutoCAD Mechanical|Company: Autodesk, Inc."
 90
     1024
280
     0
281
     0
  0
CLASS
  1
ACMANOOTATIONVIEWSTANDARDANSI
  2
AmdtAnViewStdANSI
  3
"Amdt_StdImp|Product Description: AutoCAD Mechanical|Company: Autodesk, Inc."
 90
     1024
280
     0
281
     0
  0
CLASS
  1
ACAMGHOLECHARTSTDANSI
  2
AcAmgHoleChartStdANSI
  3
AmgDim|Product Description: AutoCAD Mechanical|Company: Autodesk, Inc.
 90
     1024
280
     0
281
     0
  0
CLASS
  1
ACDBPLACEHOLDER
  2
AcDbPlaceHolder
  3
ObjectDBX Classes
 90
        0
280
     0
281
     0
  0
CLASS
  1
LAYOUT
  2
AcDbLayout
  3
ObjectDBX Classes
 90
        0
280
     0
281
     0
  0
CLASS
  1
DIMASSOC
  2
AcDbDimAssoc
  3
"AcDbDimAssoc|Product Desc:     AcDim ARX App For Dimension|Company:          Autodesk, Inc.|WEB Address:      www.autodesk.com"
 90
        0
280
     0
281
     0
  0
ENDSEC
  0
SECTION
  2
TABLES
  0
TABLE
  2
VPORT
  5
8
330
0
100
AcDbSymbolTable
 70
     1
  0
VPORT
  5
5F
330
8
100
AcDbSymbolTableRecord
100
AcDbViewportTableRecord
  2
*Active
 70
     0
 10
0.0
 20
0.0
 11
1.0
 21
1.0
 12
121.4378996271527
 22
103.713908588791
 13
0.0
 23
0.0
 14
2.5
 24
2.5
 15
10.0
 25
10.0
 16
0.0
 26
0.0
 36
1.0
 17
0.0
 27
0.0
 37
0.0
 40
228.0210718188657
 41
1.265806451612903
 42
50.0
 43
0.0
 44
0.0
 50
0.0
 51
0.0
 71
     0
 72
  1000
 73
     1
 74
     3
 75
     0
 76
     0
 77
     0
 78
     0
281
     0
 65
     0
110
0.0
120
0.0
130
0.0
111
1.0
121
0.0
131
0.0
112
0.0
122
1.0
132
0.0
 79
     0
146
0.0
  0
ENDTAB
  0
TABLE
  2
LTYPE
  5
5
330
0
100
AcDbSymbolTable
 70
    13
  0
LTYPE
  5
63
330
5
100
AcDbSymbolTableRecord
100
AcDbLinetypeTableRecord
  2
ByBlock
 70
     0
  3

 72
    65
 73
     0
 40
0.0
  0
LTYPE
  5
64
330
5
100
AcDbSymbolTableRecord
100
AcDbLinetypeTableRecord
  2
ByLayer
 70
     0
  3

 72
    65
 73
     0
 40
0.0
  0
LTYPE
  5
65
330
5
100
AcDbSymbolTableRecord
100
AcDbLinetypeTableRecord
  2
Continuous
 70
     0
  3
Solid line
 72
    65
 73
     0
 40
0.0
  0
LTYPE
  5
B3
330
5
100
AcDbSymbolTableRecord
100
AcDbLinetypeTableRecord
  2
HIDDEN
 70
     0
  3
Hidden __ __ __ __ __ __ __ __ __ __ __ __ __ _
 72
    65
 73
     2
 40
9.524999999999996
 49
6.349999999999997
 74
     0
 49
-3.174999999999998
 74
     0
  0
LTYPE
  5
B4
330
5
100
AcDbSymbolTableRecord
100
AcDbLinetypeTableRecord
  2
PHANTOM2
 70
     0
  3
Phantom (.5x) ___ _ _ ___ _ _ ___ _ _ ___ _ _
 72
    65
 73
     6
 40
31.75
 49
15.875
 74
     0
 49
-3.174999999999998
 74
     0
 49
3.174999999999998
 74
     0
 49
-3.174999999999998
 74
     0
 49
3.174999999999998
 74
     0
 49
-3.174999999999998
 74
     0
  0
LTYPE
  5
B5
330
5
100
AcDbSymbolTableRecord
100
AcDbLinetypeTableRecord
  2
CENTER
 70
     0
  3
Center ____ _ ____ _ ____ _ ____ _ ____ _ ____
 72
    65
 73
     4
 40
50.8
 49
31.75
 74
     0
 49
-6.349999999999997
 74
     0
 49
6.349999999999997
 74
     0
 49
-6.349999999999997
 74
     0
  0
LTYPE
  5
F1
330
5
100
AcDbSymbolTableRecord
100
AcDbLinetypeTableRecord
  2
ACISOWELD
 70
     0
  3
_ _ _ _ _
 72
    65
 73
     2
 40
2.0
 49
2.0
 74
     0
 49
-1.0
 74
     0
  0
LTYPE
  5
F2
330
5
100
AcDbSymbolTableRecord
100
AcDbLinetypeTableRecord
  2
ACISOTGB
 70
     0
  3
__ . . __ . .
 72
    65
 73
     6
 40
9.0
 49
4.0
 74
     0
 49
-1.0
 74
     0
 49
1.0
 74
     0
 49
-1.0
 74
     0
 49
1.0
 74
     0
 49
-1.0
 74
     0
  0
LTYPE
  5
F3
330
5
100
AcDbSymbolTableRecord
100
AcDbLinetypeTableRecord
  2
ACISOTGL
 70
     0
  3
_ _ _ _ _
 72
    65
 73
     2
 40
3.0
 49
2.0
 74
     0
 49
-1.0
 74
     0
  0
LTYPE
  5
185
330
5
100
AcDbSymbolTableRecord
100
AcDbLinetypeTableRecord
  2
CENTER2
 70
     0
  3
Center (.5x) ___ _ ___ _ ___ _ ___ _ ___ _ ___
 72
    65
 73
     4
 40
1.125
 49
0.75
 74
     0
 49
-0.125
 74
     0
 49
0.125
 74
     0
 49
-0.125
 74
     0
  0
LTYPE
  5
186
330
5
100
AcDbSymbolTableRecord
100
AcDbLinetypeTableRecord
  2
HIDDEN2
 70
     0
  3
Hidden (.5x) _ _ _ _ _ _ _ _ _ _ _ _ _ _ _ _ _
 72
    65
 73
     2
 40
0.1875
 49
0.125
 74
     0
 49
-0.0625
 74
     0
  0
LTYPE
  5
187
330
5
100
AcDbSymbolTableRecord
100
AcDbLinetypeTableRecord
  2
ACANSTGBM
 70
     0
  3
__ . . __ . .
 72
    65
 73
     6
 40
9.0
 49
4.0
 74
     0
 49
-1.0
 74
     0
 49
1.0
 74
     0
 49
-1.0
 74
     0
 49
1.0
 74
     0
 49
-1.0
 74
     0
  0
LTYPE
  5
188
330
5
100
AcDbSymbolTableRecord
100
AcDbLinetypeTableRecord
  2
ACANSTGLM
 70
     0
  3
_ _ _ _ _
 72
    65
 73
     2
 40
3.0
 49
2.0
 74
     0
 49
-1.0
 74
     0
  0
LTYPE
  5
40E
330
5
100
AcDbSymbolTableRecord
100
AcDbLinetypeTableRecord
  2
ACANSTGB
 70
     0
  3
__ . . __ . .
 72
    65
 73
     6
 40
0.35433070866
 49
0.15748031496
 74
     0
 49
-0.03937007874
 74
     0
 49
0.03937007874
 74
     0
 49
-0.03937007874
 74
     0
 49
0.03937007874
 74
     0
 49
-0.03937007874
 74
     0
  0
LTYPE
  5
40F
330
5
100
AcDbSymbolTableRecord
100
AcDbLinetypeTableRecord
  2
ACANSTGL
 70
     0
  3
_ _ _ _ _
 72
    65
 73
     2
 40
0.11811023622
 49
0.07874015748
 74
     0
 49
-0.03937007874
 74
     0
  0
ENDTAB
  0
TABLE
  2
LAYER
  5
2
102
{ACAD_XDICTIONARY
360
12A
102
}
330
0
100
AcDbSymbolTable
 70
     8
  0
LAYER
  5
5C
102
{ACAD_XDICTIONARY
360
158
102
}
330
2
100
AcDbSymbolTableRecord
100
AcDbLayerTableRecord
  2
0
 70
     0
 62
     7
  6
Continuous
370
    -3
390
F
  0
LAYER
  5
119
102
{ACAD_XDICTIONARY
360
11A
102
}
330
2
100
AcDbSymbolTableRecord
100
AcDbLayerTableRecord
  2
外形線
 70
     0
 62
     7
  6
Continuous
370
    40
390
F
  0
LAYER
  5
11B
102
{ACAD_XDICTIONARY
360
11C
102
}
330
2
100
AcDbSymbolTableRecord
100
AcDbLayerTableRecord
  2
枠
 70
     0
 62
   130
  6
CENTER
370
    50
390
F
1001
AcAecLayerStandard
1000

1000

  0
LAYER
  5
11D
102
{ACAD_XDICTIONARY
360
15C
102
}
330
2
100
AcDbSymbolTableRecord
100
AcDbLayerTableRecord
  2
レイヤー_1_0
 70
     0
 62
   160
  6
Continuous
370
    -3
390
F
  0
LAYER
  5
189
330
2
100
AcDbSymbolTableRecord
100
AcDbLayerTableRecord
  2
AM_0
 70
     0
 62
     7
  6
Continuous
370
    50
390
F
1001
AcAecLayerStandard
1000

1000

  0
LAYER
  5
1B8
330
2
100
AcDbSymbolTableRecord
100
AcDbLayerTableRecord
  2
AM_5
 70
     0
 62
     3
  6
Continuous
370
    25
390
F
1001
AcAecLayerStandard
1000

1000

  0
LAYER
  5
410
330
2
100
AcDbSymbolTableRecord
100
AcDbLayerTableRecord
  2
レイヤー_1
 70
     0
 62
   160
  6
Continuous
370
    -3
390
F
  0
LAYER
  5
E9A
330
2
100
AcDbSymbolTableRecord
100
AcDbLayerTableRecord
  2
Defpoints
 70
     0
 62
     7
  6
Continuous
290
     0
370
    -3
390
F
  0
ENDTAB
  0
TABLE
  2
STYLE
  5
3
330
0
100
AcDbSymbolTable
 70
    10
  0
STYLE
  5
5D
330
3
100
AcDbSymbolTableRecord
100
AcDbTextStyleTableRecord
  2
STANDARD
 70
     0
 40
0.0
 41
0.8
 50
0.0
 71
     0
 42
2.5
  3
romans.shx
  4
bigfont.shx
  0
STYLE
  5
62
330
3
100
AcDbSymbolTableRecord
100
AcDbTextStyleTableRecord
  2
Annotative
 70
     0
 40
0.0
 41
1.0
 50
0.0
 71
     0
 42
0.2
  3

  4

1001
AcadAnnotative
1000
AnnotativeData
1002
{
1070
     1
1070
     1
1002
}
  0
STYLE
  5
E1
330
3
100
AcDbSymbolTableRecord
100
AcDbTextStyleTableRecord
  2
ACISOTS
 70
     0
 40
1.0
 41
1.0
 50
0.0
 71
     0
 42
2.5
  3
isocp.shx
  4
extfont.shx
  0
STYLE
  5
F0
330
3
100
AcDbSymbolTableRecord
100
AcDbTextStyleTableRecord
  2
ACISOGDT
 70
     0
 40
0.0
 41
1.0
 50
0.0
 71
     0
 42
2.5
  3
amgdt.shx
  4

  0
STYLE
  5
115
330
3
100
AcDbSymbolTableRecord
100
AcDbTextStyleTableRecord
  2
USER1
 70
     0
 40
0.0
 41
1.0
 50
0.0
 71
     0
 42
2.5
  3
TXT.SHX
  4

  0
STYLE
  5
116
330
3
100
AcDbSymbolTableRecord
100
AcDbTextStyleTableRecord
  2
USER2
 70
     0
 40
0.0
 41
1.0
 50
0.0
 71
     0
 42
2.5
  3
SIMPLEX.SHX
  4

  0
STYLE
  5
117
330
3
100
AcDbSymbolTableRecord
100
AcDbTextStyleTableRecord
  2
USER3
 70
     0
 40
0.0
 41
1.0
 50
0.0
 71
     0
 42
2.5
  3
ITALIC.SHX
  4

  0
STYLE
  5
11E
330
3
100
AcDbSymbolTableRecord
100
AcDbTextStyleTableRecord
  2
KANJISTD
 70
     0
 40
0.0
 41
1.0
 50
0.0
 71
     0
 42
0.0
  3
txt
  4
extfont
  0
STYLE
  5
18A
330
3
100
AcDbSymbolTableRecord
100
AcDbTextStyleTableRecord
  2
ACANSTS
 70
     0
 40
1.0
 41
1.0
 50
0.0
 71
     0
 42
0.2
  3
romans.shx
  4
extfont.shx
  0
STYLE
  5
18B
330
3
100
AcDbSymbolTableRecord
100
AcDbTextStyleTableRecord
  2
ACANSGDT
 70
     0
 40
0.0
 41
1.0
 50
0.0
 71
     0
 42
0.2
  3
amgdt.shx
  4

  0
ENDTAB
  0
TABLE
  2
VIEW
  5
6
330
0
100
AcDbSymbolTable
 70
     0
  0
ENDTAB
  0
TABLE
  2
UCS
  5
7
330
0
100
AcDbSymbolTable
 70
     0
  0
ENDTAB
  0
TABLE
  2
APPID
  5
9
330
0
100
AcDbSymbolTable
 70
    25
  0
APPID
  5
5E
330
9
100
AcDbSymbolTableRecord
100
AcDbRegAppTableRecord
  2
ACAD
 70
     0
  0
APPID
  5
66
330
9
100
AcDbSymbolTableRecord
100
AcDbRegAppTableRecord
  2
AcadAnnotative
 70
     0
  0
APPID
  5
70
330
9
100
AcDbSymbolTableRecord
100
AcDbRegAppTableRecord
  2
ACAD_MLEADERVER
 70
     0
  0
APPID
  5
84
330
9
100
AcDbSymbolTableRecord
100
AcDbRegAppTableRecord
  2
MCAD_NO_VIS
 70
     0
  0
APPID
  5
85
330
9
100
AcDbSymbolTableRecord
100
AcDbRegAppTableRecord
  2
ACAD_TEMP_GRAPHIC
 70
     0
  0
APPID
  5
B7
330
9
100
AcDbSymbolTableRecord
100
AcDbRegAppTableRecord
  2
AD_DRAW
 70
     0
  0
APPID
  5
BA
330
9
100
AcDbSymbolTableRecord
100
AcDbRegAppTableRecord
  2
ACATTRIBSERVICES
 70
     0
  0
APPID
  5
DB
330
9
100
AcDbSymbolTableRecord
100
AcDbRegAppTableRecord
  2
DESIGNERASSEMBLIES
 70
     0
  0
APPID
  5
10F
330
9
100
AcDbSymbolTableRecord
100
AcDbRegAppTableRecord
  2
ACADM_DIM_EDIT
 70
     0
  0
APPID
  5
110
330
9
100
AcDbSymbolTableRecord
100
AcDbRegAppTableRecord
  2
AMDT_DM_ADJ
 70
     0
  0
APPID
  5
121
330
9
100
AcDbSymbolTableRecord
100
AcDbRegAppTableRecord
  2
ACAD_PSEXT
 70
     0
  0
APPID
  5
122
330
9
100
AcDbSymbolTableRecord
100
AcDbRegAppTableRecord
  2
AcAecLayerStandard
 70
     0
  0
APPID
  5
123
330
9
100
AcDbSymbolTableRecord
100
AcDbRegAppTableRecord
  2
GENIUS_GENODEF_13
 70
     0
  0
APPID
  5
124
330
9
100
AcDbSymbolTableRecord
100
AcDbRegAppTableRecord
  2
GENIUS_GENREC_14
 70
     0
  0
APPID
  5
125
330
9
100
AcDbSymbolTableRecord
100
AcDbRegAppTableRecord
  2
GENIUS_GENOBJ-N-REC_13
 70
     0
  0
APPID
  5
126
330
9
100
AcDbSymbolTableRecord
100
AcDbRegAppTableRecord
  2
ACAD_DSTYLE_DIMJAG
 70
     0
  0
APPID
  5
127
330
9
100
AcDbSymbolTableRecord
100
AcDbRegAppTableRecord
  2
ACAD_DSTYLE_DIMTALN
 70
     0
  0
APPID
  5
128
330
9
100
AcDbSymbolTableRecord
100
AcDbRegAppTableRecord
  2
ACAD_DSTYLE_DIMBREAK
 70
     0
  0
APPID
  5
129
330
9
100
AcDbSymbolTableRecord
100
AcDbRegAppTableRecord
  2
DCO15
 70
     0
  0
APPID
  5
248
330
9
100
AcDbSymbolTableRecord
100
AcDbRegAppTableRecord
  2
ACAD_DSTYLE_DIMJOGGED_JOGANGLE_SYMBOL
 70
     0
  0
APPID
  5
250
330
9
100
AcDbSymbolTableRecord
100
AcDbRegAppTableRecord
  2
ACAD_DSTYLE_DIMARC_LENGTH_SYMBOL
 70
     0
  0
APPID
  5
2DC
330
9
100
AcDbSymbolTableRecord
100
AcDbRegAppTableRecord
  2
AcadAnnoPO
 70
     0
  0
APPID
  5
EB2
330
9
100
AcDbSymbolTableRecord
100
AcDbRegAppTableRecord
  2
ACAD_DSTYLE_DIMINSPECT
 70
     0
  0
APPID
  5
F81
330
9
100
AcDbSymbolTableRecord
100
AcDbRegAppTableRecord
  2
GENIUS_GENDTOL_13
 70
     0
  0
APPID
  5
FB0
330
9
100
AcDbSymbolTableRecord
100
AcDbRegAppTableRecord
  2
GENIUS_GENDIMSH_14
 70
     0
  0
ENDTAB
  0
TABLE
  2
DIMSTYLE
  5
A
330
0
100
AcDbSymbolTable
 70
    19
100
AcDbDimStyleTable
 71
     1
340
FF
  0
DIMSTYLE
105
60
330
A
100
AcDbSymbolTableRecord
100
AcDbDimStyleTableRecord
  2
ISO-25
 70
     0
 41
2.5
 42
0.625
 43
3.75
 44
1.25
 73
     0
 74
     0
 77
     1
 78
     8
140
2.5
141
2.5
143
0.03937007874016
147
0.625
171
     3
172
     1
271
     2
272
     2
274
     3
283
     0
284
     8
340
5D
1001
ACAD_DSTYLE_DIMJOGGED_JOGANGLE_SYMBOL
1070
   384
1040
1.570796326794896
  0
DIMSTYLE
105
61
330
A
100
AcDbSymbolTableRecord
100
AcDbDimStyleTableRecord
  2
Annotative
 70
     0
340
5D
1001
AcadAnnotative
1000
AnnotativeData
1002
{
1070
     1
1070
     1
1002
}
  0
DIMSTYLE
105
FF
330
A
100
AcDbSymbolTableRecord
100
AcDbDimStyleTableRecord
  2
AM_ISO
 70
     0
  4
"
 41
2.5
 42
1.0
 43
10.0
 44
1.0
 47
0.1
 48
0.1
 73
     0
 74
     0
 77
     1
 78
     8
 79
     2
140
3.0
141
0.0
143
0.0393701
146
0.71
147
1.0
172
     1
176
   256
177
   256
178
     2
271
     2
272
     2
283
     0
284
     8
340
5D
371
    -1
372
    -1
1001
ACAD_DSTYLE_DIMARC_LENGTH_SYMBOL
1070
   379
1070
     1
  0
DIMSTYLE
105
100
330
A
100
AcDbSymbolTableRecord
100
AcDbDimStyleTableRecord
  2
AM_ISO$3
 70
     0
  4
"
 41
2.5
 42
1.0
 43
10.0
 44
1.0
 47
0.1
 48
0.1
 73
     0
 77
     1
 78
     8
 79
     2
140
3.5
141
0.0
143
0.0393701
146
0.71
147
1.5
176
   256
177
   256
178
     2
271
     2
272
     3
274
     4
283
     0
284
     8
288
     1
289
     0
340
5D
371
    -1
372
    -1
1001
ACAD_DSTYLE_DIMARC_LENGTH_SYMBOL
1070
   379
1070
     1
  0
DIMSTYLE
105
101
330
A
100
AcDbSymbolTableRecord
100
AcDbDimStyleTableRecord
  2
AM_ISO$4
 70
     0
  4
"
 41
2.5
 42
1.0
 43
10.0
 44
1.0
 47
0.1
 48
0.1
 73
     0
 77
     1
 78
     8
 79
     2
140
3.5
141
0.0
143
0.0393701
146
0.71
147
1.5
176
   256
177
   256
178
     2
271
     2
272
     3
274
     4
283
     0
284
     8
288
     1
289
     0
340
5D
371
    -1
372
    -1
1001
ACAD_DSTYLE_DIMARC_LENGTH_SYMBOL
1070
   379
1070
     1
  0
DIMSTYLE
105
102
330
A
100
AcDbSymbolTableRecord
100
AcDbDimStyleTableRecord
  2
AM_ISO$6
 70
     0
  4
"
 41
2.5
 42
1.0
 43
10.0
 44
1.0
 47
0.1
 48
0.1
 73
     0
 74
     0
 78
     8
 79
     2
140
3.5
141
0.0
143
0.0393701
146
0.71
147
1.5
172
     1
176
   256
177
   256
178
     2
271
     2
272
     3
274
     4
283
     0
284
     8
340
5D
371
    -1
372
    -1
1001
ACAD_DSTYLE_DIMARC_LENGTH_SYMBOL
1070
   379
1070
     1
  0
DIMSTYLE
105
103
330
A
100
AcDbSymbolTableRecord
100
AcDbDimStyleTableRecord
  2
AM_ISO$7
 70
     0
  4
"
 41
2.5
 42
1.0
 43
10.0
 44
1.0
 47
0.1
 48
0.1
 73
     0
 74
     0
 77
     1
 78
     8
 79
     2
140
5.0
141
0.0
143
0.0393701
146
0.71
147
1.5
172
     1
176
   256
177
   256
178
     2
271
     2
272
     3
274
     4
283
     0
284
     8
340
5D
371
    -1
372
    -1
1001
ACAD_DSTYLE_DIMARC_LENGTH_SYMBOL
1070
   379
1070
     1
  0
DIMSTYLE
105
104
330
A
100
AcDbSymbolTableRecord
100
AcDbDimStyleTableRecord
  2
AM_ISO$SF
 70
     0
  4
"
 41
2.5
 42
1.0
 43
10.0
 44
1.0
 47
0.1
 48
0.1
 73
     0
 74
     0
 75
     1
 76
     1
 77
     1
 78
     8
 79
     2
140
3.5
141
0.0
143
0.0393701
146
0.71
147
1.5
172
     1
176
   256
177
   256
178
     2
271
     2
272
     3
274
     4
283
     0
284
     8
340
5D
371
    -1
372
    -1
1001
ACAD_DSTYLE_DIMARC_LENGTH_SYMBOL
1070
   379
1070
     1
  0
DIMSTYLE
105
109
330
A
100
AcDbSymbolTableRecord
100
AcDbDimStyleTableRecord
  2
AM_ISO$SH
 70
     0
  4
"
 41
2.5
 42
1.0
 43
10.0
 44
1.0
 47
0.1
 48
0.1
 73
     0
 74
     0
 75
     1
 76
     1
 77
     1
 78
     8
 79
     2
140
3.5
141
0.0
143
0.0393701
144
2.0
146
0.71
147
1.5
172
     1
173
     1
176
   256
177
   256
178
     2
271
     2
272
     3
274
     4
283
     0
284
     8
340
5D
343
105
371
    -1
372
    -1
1001
ACAD_DSTYLE_DIMARC_LENGTH_SYMBOL
1070
   379
1070
     1
  0
DIMSTYLE
105
11F
102
{ACAD_REACTORS
330
E99
330
EC5
330
F4F
330
F98
330
FBA
330
1009
330
1033
330
1066
330
108D
330
10B4
102
}
330
A
100
AcDbSymbolTableRecord
100
AcDbDimStyleTableRecord
  2
AM_ISO$0
 70
     0
  4
"
 41
2.5
 42
1.0
 43
10.0
 44
1.0
 47
0.1
 48
0.1
 73
     0
 74
     0
 77
     1
 78
     8
 79
     2
140
3.0
141
0.0
143
0.0393701
146
0.71
147
1.0
172
     1
176
   256
177
   256
178
     2
271
     2
272
     2
283
     0
284
     8
340
5D
371
    -1
372
    -1
1001
ACAD_DSTYLE_DIMJAG
1070
   388
1040
1.5
1001
ACAD_DSTYLE_DIMTALN
1070
   392
1070
     0
1001
ACAD_DSTYLE_DIMARC_LENGTH_SYMBOL
1070
   379
1070
     1
  0
DIMSTYLE
105
120
330
A
100
AcDbSymbolTableRecord
100
AcDbDimStyleTableRecord
  2
AM_ISO$2
 70
     0
  4
"
 41
2.5
 42
1.0
 43
10.0
 44
1.0
 47
0.1
 48
0.1
 73
     0
 74
     0
 77
     1
 78
     8
 79
     2
140
3.0
141
0.0
143
0.0393701
146
0.71
147
1.0
172
     1
176
   256
177
   256
178
     2
271
     2
272
     2
283
     0
284
     8
340
5D
371
    -1
372
    -1
1001
ACAD_DSTYLE_DIMJAG
1070
   388
1040
1.5
1001
ACAD_DSTYLE_DIMTALN
1070
   392
1070
     0
1001
ACAD_DSTYLE_DIMARC_LENGTH_SYMBOL
1070
   379
1070
     1
  0
DIMSTYLE
105
18C
330
A
100
AcDbSymbolTableRecord
100
AcDbDimStyleTableRecord
  2
Standard
 70
     0
289
     0
340
5D
  0
DIMSTYLE
105
18D
330
A
100
AcDbSymbolTableRecord
100
AcDbDimStyleTableRecord
  2
AM_ANSI
 70
     0
  4
"
 41
2.5
 42
1.0
 43
10.0
 44
1.0
 47
0.1
 48
0.1
 73
     0
 74
     0
 77
     1
 78
     8
 79
     2
140
3.0
141
0.0
143
0.0393701
146
0.71
147
1.0
176
   256
177
   256
178
     2
271
     2
272
     2
284
     8
340
5D
371
    -1
372
    -1
1001
ACAD_DSTYLE_DIMJAG
1070
   388
1040
1.5
1001
ACAD_DSTYLE_DIMTALN
1070
   392
1070
     0
1001
ACAD_DSTYLE_DIMARC_LENGTH_SYMBOL
1070
   379
1070
     1
  0
DIMSTYLE
105
18E
330
A
100
AcDbSymbolTableRecord
100
AcDbDimStyleTableRecord
  2
AM_ANSI$3
 70
     0
  4
"
 41
2.5
 42
1.0
 43
10.0
 44
1.0
 47
0.1
 48
0.1
 78
     8
 79
     2
140
3.5
141
0.0
143
0.0393701
146
0.71
147
1.5
176
   256
177
   256
178
     2
271
     2
272
     2
274
     4
284
     8
288
     1
289
     0
340
5D
371
    -1
372
    -1
1001
ACAD_DSTYLE_DIMARC_LENGTH_SYMBOL
1070
   379
1070
     1
  0
DIMSTYLE
105
18F
330
A
100
AcDbSymbolTableRecord
100
AcDbDimStyleTableRecord
  2
AM_ANSI$4
 70
     0
  4
"
 41
2.5
 42
1.0
 43
10.0
 44
1.0
 47
0.1
 48
0.1
 78
     8
 79
     2
140
3.5
141
0.0
143
0.0393701
146
0.71
147
1.5
176
   256
177
   256
178
     2
271
     2
272
     2
274
     4
284
     8
288
     1
289
     0
340
5D
371
    -1
372
    -1
1001
ACAD_DSTYLE_DIMARC_LENGTH_SYMBOL
1070
   379
1070
     1
  0
DIMSTYLE
105
190
330
A
100
AcDbSymbolTableRecord
100
AcDbDimStyleTableRecord
  2
AM_ANSI$7
 70
     0
  4
"
 41
2.5
 42
1.0
 43
10.0
 44
1.0
 47
0.1
 48
0.1
 78
     8
 79
     2
140
5.0
141
0.0
143
0.0393701
146
0.71
147
1.5
176
   256
177
   256
178
     2
271
     2
272
     2
274
     4
284
     8
340
5D
371
    -1
372
    -1
1001
ACAD_DSTYLE_DIMARC_LENGTH_SYMBOL
1070
   379
1070
     1
  0
DIMSTYLE
105
191
330
A
100
AcDbSymbolTableRecord
100
AcDbDimStyleTableRecord
  2
AM_ANSI$SF
 70
     0
  4
"
 41
2.5
 42
1.0
 43
10.0
 44
1.0
 47
0.1
 48
0.1
 75
     1
 76
     1
 78
     8
 79
     2
140
3.5
141
0.0
143
0.0393701
146
0.71
147
1.5
176
   256
177
   256
178
     2
271
     2
272
     3
274
     4
284
     8
340
5D
371
    -1
372
    -1
1001
ACAD_DSTYLE_DIMARC_LENGTH_SYMBOL
1070
   379
1070
     1
  0
DIMSTYLE
105
192
330
A
100
AcDbSymbolTableRecord
100
AcDbDimStyleTableRecord
  2
AM_ANSI$SH
 70
     0
  4
"
 41
2.5
 42
1.0
 43
10.0
 44
1.0
 47
0.1
 48
0.1
 75
     1
 76
     1
 78
     8
 79
     2
140
3.5
141
0.0
143
0.0393701
146
0.71
147
1.5
173
     1
176
   256
177
   256
178
     2
271
     2
272
     3
274
     4
284
     8
340
5D
343
105
371
    -1
372
    -1
1001
ACAD_DSTYLE_DIMARC_LENGTH_SYMBOL
1070
   379
1070
     1
  0
DIMSTYLE
105
193
330
A
100
AcDbSymbolTableRecord
100
AcDbDimStyleTableRecord
  2
AM_ANSI$0
 70
     0
  4
"
 41
2.5
 42
1.0
 43
10.0
 44
1.0
 47
0.1
 48
0.1
 73
     0
 74
     0
 77
     1
 78
     8
 79
     2
140
3.0
141
0.0
143
0.0393701
146
0.71
147
1.0
176
   256
177
   256
178
     2
271
     2
272
     2
284
     8
340
5D
371
    -1
372
    -1
1001
ACAD_DSTYLE_DIMJAG
1070
   388
1040
1.5
1001
ACAD_DSTYLE_DIMTALN
1070
   392
1070
     0
1001
ACAD_DSTYLE_DIMARC_LENGTH_SYMBOL
1070
   379
1070
     1
  0
ENDTAB
  0
TABLE
  2
BLOCK_RECORD
  5
1
330
0
100
AcDbSymbolTable
 70
    15
  0
BLOCK_RECORD
  5
75
330
1
100
AcDbSymbolTableRecord
100
AcDbBlockTableRecord
  2
*Model_Space
340
78
  0
BLOCK_RECORD
  5
71
330
1
100
AcDbSymbolTableRecord
100
AcDbBlockTableRecord
  2
*Paper_Space
340
74
  0
BLOCK_RECORD
  5
79
330
1
100
AcDbSymbolTableRecord
100
AcDbBlockTableRecord
  2
*Paper_Space0
340
7C
  0
BLOCK_RECORD
  5
105
330
1
100
AcDbSymbolTableRecord
100
AcDbBlockTableRecord
  2
GENAXEH
340
0
  0
BLOCK_RECORD
  5
1B9
330
1
100
AcDbSymbolTableRecord
100
AcDbBlockTableRecord
  2
GENDOT
340
0
  0
BLOCK_RECORD
  5
E9B
330
1
100
AcDbSymbolTableRecord
100
AcDbBlockTableRecord
  2
*D5
340
0
  0
BLOCK_RECORD
  5
EC6
330
1
100
AcDbSymbolTableRecord
100
AcDbBlockTableRecord
  2
*D6
340
0
  0
BLOCK_RECORD
  5
F50
330
1
100
AcDbSymbolTableRecord
100
AcDbBlockTableRecord
  2
*D7
340
0
  0
BLOCK_RECORD
  5
F99
330
1
100
AcDbSymbolTableRecord
100
AcDbBlockTableRecord
  2
*D8
340
0
  0
BLOCK_RECORD
  5
FBB
330
1
100
AcDbSymbolTableRecord
100
AcDbBlockTableRecord
  2
*D9
340
0
  0
BLOCK_RECORD
  5
100A
330
1
100
AcDbSymbolTableRecord
100
AcDbBlockTableRecord
  2
*D10
340
0
  0
BLOCK_RECORD
  5
1034
330
1
100
AcDbSymbolTableRecord
100
AcDbBlockTableRecord
  2
*D11
340
0
  0
BLOCK_RECORD
  5
1067
330
1
100
AcDbSymbolTableRecord
100
AcDbBlockTableRecord
  2
*D12
340
0
  0
BLOCK_RECORD
  5
108E
330
1
100
AcDbSymbolTableRecord
100
AcDbBlockTableRecord
  2
*D13
340
0
  0
BLOCK_RECORD
  5
10B5
330
1
100
AcDbSymbolTableRecord
100
AcDbBlockTableRecord
  2
*D14
340
0
  0
ENDTAB
  0
ENDSEC
  0
SECTION
  2
BLOCKS
  0
BLOCK
  5
76
330
75
100
AcDbEntity
  8
0
100
AcDbBlockBegin
  2
*Model_Space
 70
     0
 10
0.0
 20
0.0
 30
0.0
  3
*Model_Space
  1

  0
ENDBLK
  5
77
330
75
100
AcDbEntity
  8
0
100
AcDbBlockEnd
  0
BLOCK
  5
72
330
71
100
AcDbEntity
 67
     1
  8
0
100
AcDbBlockBegin
  2
*Paper_Space
 70
     0
 10
0.0
 20
0.0
 30
0.0
  3
*Paper_Space
  1

  0
ENDBLK
  5
73
330
71
100
AcDbEntity
 67
     1
  8
0
100
AcDbBlockEnd
  0
BLOCK
  5
7A
330
79
100
AcDbEntity
 67
     1
  8
0
100
AcDbBlockBegin
  2
*Paper_Space0
 70
     0
 10
0.0
 20
0.0
 30
0.0
  3
*Paper_Space0
  1

  0
ENDBLK
  5
7B
330
79
100
AcDbEntity
 67
     1
  8
0
100
AcDbBlockEnd
  0
BLOCK
  5
107
330
105
100
AcDbEntity
  8
0
100
AcDbBlockBegin
  2
GENAXEH
 70
     0
 10
0.0
 20
0.0
 30
0.0
  3
GENAXEH
  1

  0
LINE
  5
106
330
105
100
AcDbEntity
  8
0
100
AcDbLine
 10
-1.0
 20
0.0
 30
0.0
 11
1.0
 21
0.0
 31
0.0
  0
ENDBLK
  5
108
330
105
100
AcDbEntity
  8
0
100
AcDbBlockEnd
  0
BLOCK
  5
1BC
330
1B9
100
AcDbEntity
  8
0
100
AcDbBlockBegin
  2
GENDOT
 70
     0
 10
0.0
 20
0.0
 30
0.0
  3
GENDOT
  1

  0
LINE
  5
1BA
330
1B9
100
AcDbEntity
  8
0
100
AcDbLine
 10
0.0
 20
0.0
 30
0.0
 11
-1.0
 21
0.0
 31
0.0
  0
LWPOLYLINE
  5
1BB
330
1B9
100
AcDbEntity
  8
0
100
AcDbPolyline
 90
        2
 70
     1
 43
0.25
 10
-0.125
 20
0.0
 42
1.0
 10
0.125
 20
0.0
 42
1.0
  0
ENDBLK
  5
1BD
330
1B9
100
AcDbEntity
  8
0
100
AcDbBlockEnd
  0
BLOCK
  5
E9C
330
E9B
100
AcDbEntity
  8
0
100
AcDbBlockBegin
  2
*D5
 70
     1
 10
0.0
 20
0.0
 30
0.0
  3
*D5
  1

  0
LINE
  5
EBC
330
E9B
100
AcDbEntity
  8
AM_5
100
AcDbLine
 10
60.14176317291146
 20
159.3612094318711
 30
0.0
 11
60.14176317291146
 21
119.0614714318711
 31
0.0
  0
LINE
  5
EBD
330
E9B
100
AcDbEntity
  8
AM_5
100
AcDbLine
 10
36.13874917291145
 20
159.3612094318711
 30
0.0
 11
36.13874917291145
 21
119.0614714318711
 31
0.0
  0
LINE
  5
EBE
330
E9B
100
AcDbEntity
  8
AM_5
100
AcDbLine
 10
57.64176317291146
 20
120.0614714318711
 30
0.0
 11
38.63874917291145
 21
120.0614714318711
 31
0.0
  0
SOLID
  5
EBF
330
E9B
100
AcDbEntity
  8
AM_5
100
AcDbTrace
 10
57.64176317291146
 20
120.4781380985378
 30
0.0
 11
57.64176317291146
 21
119.6448047652045
 31
0.0
 12
60.14176317291146
 22
120.0614714318711
 32
0.0
 13
60.14176317291146
 23
120.0614714318711
 33
0.0
  0
SOLID
  5
EC0
330
E9B
100
AcDbEntity
  8
AM_5
100
AcDbTrace
 10
38.63874917291145
 20
120.4781380985378
 30
0.0
 11
38.63874917291145
 21
119.6448047652045
 31
0.0
 12
36.13874917291145
 22
120.0614714318711
 32
0.0
 13
36.13874917291145
 23
120.0614714318711
 33
0.0
  0
MTEXT
  5
EC1
330
E9B
100
AcDbEntity
  8
AM_5
 62
     2
100
AcDbMText
 10
48.14025617291146
 20
122.5614714318711
 30
0.0
 40
3.0
 41
0.0
 71
     5
 72
     1
  1
24
 73
     1
 44
1.0
1001
ACAD
1000
MTEXTBEGIN
1070
    73
1070
     1
1070
    44
1040
1.0
1070
    74
1070
     0
1000
MTEXTEND
  0
POINT
  5
EC2
330
E9B
100
AcDbEntity
  8
Defpoints
 62
     0
100
AcDbPoint
 10
60.14176317291146
 20
160.3612094318711
 30
0.0
  0
POINT
  5
EC3
330
E9B
100
AcDbEntity
  8
Defpoints
 62
     0
100
AcDbPoint
 10
36.13874917291145
 20
160.3612094318711
 30
0.0
  0
POINT
  5
EC4
330
E9B
100
AcDbEntity
  8
Defpoints
 62
     0
100
AcDbPoint
 10
36.13874917291145
 20
120.0614714318711
 30
0.0
  0
ENDBLK
  5
E9D
330
E9B
100
AcDbEntity
  8
0
100
AcDbBlockEnd
  0
BLOCK
  5
EC7
330
EC6
100
AcDbEntity
  8
0
100
AcDbBlockBegin
  2
*D6
 70
     1
 10
0.0
 20
0.0
 30
0.0
  3
*D6
  1

  0
LINE
  5
EDD
330
EC6
100
AcDbEntity
  8
AM_5
100
AcDbLine
 10
105.0311241729114
 20
111.2756604318711
 30
0.0
 11
68.68945617291148
 21
111.2756604318711
 31
0.0
  0
LINE
  5
EDE
330
EC6
100
AcDbEntity
  8
AM_5
100
AcDbLine
 10
96.03529017291146
 20
87.27299143187114
 30
0.0
 11
68.68945617291146
 21
87.27299143187115
 31
0.0
  0
LINE
  5
EDF
330
EC6
100
AcDbEntity
  8
AM_5
100
AcDbLine
 10
69.68945617291147
 20
108.7756604318711
 30
0.0
 11
69.68945617291146
 21
89.77299143187115
 31
0.0
  0
SOLID
  5
EE0
330
EC6
100
AcDbEntity
  8
AM_5
100
AcDbTrace
 10
69.2727895062448
 20
108.7756604318711
 30
0.0
 11
70.10612283957815
 21
108.7756604318711
 31
0.0
 12
69.68945617291147
 22
111.2756604318711
 32
0.0
 13
69.68945617291147
 23
111.2756604318711
 33
0.0
  0
SOLID
  5
EE1
330
EC6
100
AcDbEntity
  8
AM_5
100
AcDbTrace
 10
69.27278950624479
 20
89.77299143187115
 30
0.0
 11
70.10612283957813
 21
89.77299143187115
 31
0.0
 12
69.68945617291146
 22
87.27299143187115
 32
0.0
 13
69.68945617291146
 23
87.27299143187115
 33
0.0
  0
MTEXT
  5
EE2
330
EC6
100
AcDbEntity
  8
AM_5
 62
     2
100
AcDbMText
 10
67.18945617291145
 20
99.27432593187116
 30
0.0
 40
3.0
 41
0.0
 71
     5
 72
     1
  1
24
 11
0.0000000000000001
 21
1.0
 31
0.0
 73
     1
 44
1.0
1001
ACAD
1000
MTEXTBEGIN
1070
    73
1070
     1
1070
    44
1040
1.0
1070
    74
1070
     0
1000
MTEXTEND
  0
POINT
  5
EE3
330
EC6
100
AcDbEntity
  8
Defpoints
 62
     0
100
AcDbPoint
 10
106.0311241729114
 20
111.2756604318711
 30
0.0
  0
POINT
  5
EE4
330
EC6
100
AcDbEntity
  8
Defpoints
 62
     0
100
AcDbPoint
 10
97.03529017291145
 20
87.27299143187114
 30
0.0
  0
POINT
  5
EE5
330
EC6
100
AcDbEntity
  8
Defpoints
 62
     0
100
AcDbPoint
 10
69.68945617291146
 20
87.27299143187115
 30
0.0
  0
ENDBLK
  5
EC8
330
EC6
100
AcDbEntity
  8
0
100
AcDbBlockEnd
  0
BLOCK
  5
F51
330
F50
100
AcDbEntity
  8
0
100
AcDbBlockBegin
  2
*D7
 70
     1
 10
0.0
 20
0.0
 30
0.0
  3
*D7
  1

  0
LINE
  5
F8D
330
F50
100
AcDbEntity
  8
AM_5
100
AcDbLine
 10
163.0011176729114
 20
165.9864724318711
 30
0.0
 11
163.0011176729114
 21
124.9254105098234
 31
0.0
  0
LINE
  5
F8E
330
F50
100
AcDbEntity
  8
AM_5
100
AcDbLine
 10
156.0266941729115
 20
159.3612094318711
 30
0.0
 11
156.0266941729115
 21
124.9254105098234
 31
0.0
  0
LINE
  5
F8F
330
F50
100
AcDbEntity
  8
AM_5
100
AcDbLine
 10
165.5011176729114
 20
125.9254105098234
 30
0.0
 11
168.0011176729114
 21
125.9254105098234
 31
0.0
  0
LINE
  5
F90
330
F50
100
AcDbEntity
  8
AM_5
100
AcDbLine
 10
153.5266941729114
 20
125.9254105098234
 30
0.0
 11
151.0266941729114
 21
125.9254105098234
 31
0.0
  0
LINE
  5
F91
330
F50
100
AcDbEntity
  8
AM_5
100
AcDbLine
 10
163.0011176729114
 20
125.9254105098234
 30
0.0
 11
156.0266941729115
 21
125.9254105098234
 31
0.0
  0
SOLID
  5
F92
330
F50
100
AcDbEntity
  8
AM_5
100
AcDbTrace
 10
165.5011176729114
 20
126.3420771764901
 30
0.0
 11
165.5011176729114
 21
125.5087438431568
 31
0.0
 12
163.0011176729114
 22
125.9254105098234
 32
0.0
 13
163.0011176729114
 23
125.9254105098234
 33
0.0
  0
SOLID
  5
F93
330
F50
100
AcDbEntity
  8
AM_5
100
AcDbTrace
 10
153.5266941729114
 20
126.3420771764901
 30
0.0
 11
153.5266941729114
 21
125.5087438431568
 31
0.0
 12
156.0266941729115
 22
125.9254105098234
 32
0.0
 13
156.0266941729115
 23
125.9254105098234
 33
0.0
  0
MTEXT
  5
F94
330
F50
100
AcDbEntity
  8
AM_5
 62
     2
100
AcDbMText
 10
159.5139059229115
 20
128.4254105098234
 30
0.0
 40
3.0
 41
0.0
 71
     5
 72
     1
  1
7
 73
     1
 44
1.0
1001
ACAD
1000
MTEXTBEGIN
1070
    73
1070
     1
1070
    44
1040
1.0
1070
    74
1070
     0
1000
MTEXTEND
  0
POINT
  5
F95
330
F50
100
AcDbEntity
  8
Defpoints
 62
     0
100
AcDbPoint
 10
163.0011176729114
 20
166.9864724318711
 30
0.0
  0
POINT
  5
F96
330
F50
100
AcDbEntity
  8
Defpoints
 62
     0
100
AcDbPoint
 10
156.0266941729115
 20
160.3612094318711
 30
0.0
  0
POINT
  5
F97
330
F50
100
AcDbEntity
  8
Defpoints
 62
     0
100
AcDbPoint
 10
156.0266941729115
 20
125.9254105098234
 30
0.0
  0
ENDBLK
  5
F52
330
F50
100
AcDbEntity
  8
0
100
AcDbBlockEnd
  0
BLOCK
  5
F9A
330
F99
100
AcDbEntity
  8
0
100
AcDbBlockBegin
  2
*D8
 70
     1
 10
0.0
 20
0.0
 30
0.0
  3
*D8
  1

  0
LINE
  5
1000
330
F99
100
AcDbEntity
  8
AM_5
100
AcDbLine
 10
104.0202221729114
 20
159.3612094318711
 30
0.0
 11
104.0202221729114
 21
124.9254105098234
 31
0.0
  0
LINE
  5
1001
330
F99
100
AcDbEntity
  8
AM_5
100
AcDbLine
 10
156.0266941729115
 20
159.3612094318711
 30
0.0
 11
156.0266941729115
 21
124.9254105098234
 31
0.0
  0
LINE
  5
1002
330
F99
100
AcDbEntity
  8
AM_5
100
AcDbLine
 10
106.5202221729114
 20
125.9254105098234
 30
0.0
 11
153.5266941729114
 21
125.9254105098234
 31
0.0
  0
SOLID
  5
1003
330
F99
100
AcDbEntity
  8
AM_5
100
AcDbTrace
 10
106.5202221729114
 20
126.34207717649
 30
0.0
 11
106.5202221729114
 21
125.5087438431567
 31
0.0
 12
104.0202221729114
 22
125.9254105098234
 32
0.0
 13
104.0202221729114
 23
125.9254105098234
 33
0.0
  0
SOLID
  5
1004
330
F99
100
AcDbEntity
  8
AM_5
100
AcDbTrace
 10
153.5266941729114
 20
126.34207717649
 30
0.0
 11
153.5266941729114
 21
125.5087438431567
 31
0.0
 12
156.0266941729115
 22
125.9254105098234
 32
0.0
 13
156.0266941729115
 23
125.9254105098234
 33
0.0
  0
MTEXT
  5
1005
330
F99
100
AcDbEntity
  8
AM_5
 62
     2
100
AcDbMText
 10
130.0234581729114
 20
128.4254105098234
 30
0.0
 40
3.0
 41
0.0
 71
     5
 72
     1
  1
52
 73
     1
 44
1.0
1001
ACAD
1000
MTEXTBEGIN
1070
    73
1070
     1
1070
    44
1040
1.0
1070
    74
1070
     0
1000
MTEXTEND
  0
POINT
  5
1006
330
F99
100
AcDbEntity
  8
Defpoints
 62
     0
100
AcDbPoint
 10
104.0202221729114
 20
160.3612094318711
 30
0.0
  0
POINT
  5
1007
330
F99
100
AcDbEntity
  8
Defpoints
 62
     0
100
AcDbPoint
 10
156.0266941729115
 20
160.3612094318711
 30
0.0
  0
POINT
  5
1008
330
F99
100
AcDbEntity
  8
Defpoints
 62
     0
100
AcDbPoint
 10
156.0266941729115
 20
125.9254105098234
 30
0.0
  0
ENDBLK
  5
F9B
330
F99
100
AcDbEntity
  8
0
100
AcDbBlockEnd
  0
BLOCK
  5
FBC
330
FBB
100
AcDbEntity
  8
0
100
AcDbBlockBegin
  2
*D9
 70
     1
 10
0.0
 20
0.0
 30
0.0
  3
*D9
  1

  0
LINE
  5
FEC
330
FBB
100
AcDbEntity
  8
AM_5
100
AcDbLine
 10
97.03529017291145
 20
165.3515414318711
 30
0.0
 11
97.03529017291145
 21
124.9254105098233
 31
0.0
  0
LINE
  5
FED
330
FBB
100
AcDbEntity
  8
AM_5
100
AcDbLine
 10
104.0202221729114
 20
159.3612094318711
 30
0.0
 11
104.0202221729114
 21
124.9254105098233
 31
0.0
  0
LINE
  5
FEE
330
FBB
100
AcDbEntity
  8
AM_5
100
AcDbLine
 10
94.53529017291144
 20
125.9254105098233
 30
0.0
 11
92.03529017291144
 21
125.9254105098233
 31
0.0
  0
LINE
  5
FEF
330
FBB
100
AcDbEntity
  8
AM_5
100
AcDbLine
 10
106.5202221729114
 20
125.9254105098233
 30
0.0
 11
109.0202221729114
 21
125.9254105098233
 31
0.0
  0
LINE
  5
FF0
330
FBB
100
AcDbEntity
  8
AM_5
100
AcDbLine
 10
97.03529017291145
 20
125.9254105098233
 30
0.0
 11
104.0202221729114
 21
125.9254105098233
 31
0.0
  0
SOLID
  5
FF1
330
FBB
100
AcDbEntity
  8
AM_5
100
AcDbTrace
 10
94.53529017291144
 20
126.34207717649
 30
0.0
 11
94.53529017291144
 21
125.5087438431566
 31
0.0
 12
97.03529017291145
 22
125.9254105098233
 32
0.0
 13
97.03529017291145
 23
125.9254105098233
 33
0.0
  0
SOLID
  5
FF2
330
FBB
100
AcDbEntity
  8
AM_5
100
AcDbTrace
 10
106.5202221729114
 20
126.34207717649
 30
0.0
 11
106.5202221729114
 21
125.5087438431566
 31
0.0
 12
104.0202221729114
 22
125.9254105098233
 32
0.0
 13
104.0202221729114
 23
125.9254105098233
 33
0.0
  0
MTEXT
  5
FF3
330
FBB
100
AcDbEntity
  8
AM_5
 62
     2
100
AcDbMText
 10
100.5277561729114
 20
128.4254105098233
 30
0.0
 40
3.0
 41
0.0
 71
     5
 72
     1
  1
7
 73
     1
 44
1.0
1001
ACAD
1000
MTEXTBEGIN
1070
    73
1070
     1
1070
    44
1040
1.0
1070
    74
1070
     0
1000
MTEXTEND
  0
POINT
  5
FF4
330
FBB
100
AcDbEntity
  8
Defpoints
 62
     0
100
AcDbPoint
 10
97.03529017291145
 20
166.3515414318711
 30
0.0
  0
POINT
  5
FF5
330
FBB
100
AcDbEntity
  8
Defpoints
 62
     0
100
AcDbPoint
 10
104.0202221729114
 20
160.3612094318711
 30
0.0
  0
POINT
  5
FF6
330
FBB
100
AcDbEntity
  8
Defpoints
 62
     0
100
AcDbPoint
 10
104.0202221729114
 20
125.9254105098233
 30
0.0
  0
ENDBLK
  5
FBD
330
FBB
100
AcDbEntity
  8
0
100
AcDbBlockEnd
  0
BLOCK
  5
100B
330
100A
100
AcDbEntity
  8
0
100
AcDbBlockBegin
  2
*D10
 70
     1
 10
0.0
 20
0.0
 30
0.0
  3
*D10
  1

  0
LINE
  5
102A
330
100A
100
AcDbEntity
  8
AM_5
100
AcDbLine
 10
164.6045261729114
 20
215.6062434318711
 30
0.0
 11
188.4938735333415
 21
215.6062434318711
 31
0.0
  0
LINE
  5
102B
330
100A
100
AcDbEntity
  8
AM_5
100
AcDbLine
 10
164.6045261729114
 20
175.6012774318711
 30
0.0
 11
188.4938735333414
 21
175.6012774318711
 31
0.0
  0
LINE
  5
102C
330
100A
100
AcDbEntity
  8
AM_5
100
AcDbLine
 10
187.4938735333414
 20
213.1062434318711
 30
0.0
 11
187.4938735333414
 21
178.1012774318711
 31
0.0
  0
SOLID
  5
102D
330
100A
100
AcDbEntity
  8
AM_5
100
AcDbTrace
 10
187.0772068666748
 20
213.1062434318711
 30
0.0
 11
187.9105402000081
 21
213.1062434318711
 31
0.0
 12
187.4938735333414
 22
215.6062434318711
 32
0.0
 13
187.4938735333414
 23
215.6062434318711
 33
0.0
  0
SOLID
  5
102E
330
100A
100
AcDbEntity
  8
AM_5
100
AcDbTrace
 10
187.0772068666748
 20
178.1012774318711
 30
0.0
 11
187.9105402000081
 21
178.1012774318711
 31
0.0
 12
187.4938735333414
 22
175.6012774318711
 32
0.0
 13
187.4938735333414
 23
175.6012774318711
 33
0.0
  0
MTEXT
  5
102F
330
100A
100
AcDbEntity
  8
AM_5
 62
     2
100
AcDbMText
 10
184.9938735333414
 20
195.6037604318711
 30
0.0
 40
3.0
 41
0.0
 71
     5
 72
     1
  1
40
 11
0.0000000000000001
 21
1.0
 31
0.0
 73
     1
 44
1.0
1001
ACAD
1000
MTEXTBEGIN
1070
    73
1070
     1
1070
    44
1040
1.0
1070
    74
1070
     0
1000
MTEXTEND
  0
POINT
  5
1030
330
100A
100
AcDbEntity
  8
Defpoints
 62
     0
100
AcDbPoint
 10
163.6045261729114
 20
215.6062434318711
 30
0.0
  0
POINT
  5
1031
330
100A
100
AcDbEntity
  8
Defpoints
 62
     0
100
AcDbPoint
 10
163.6045261729114
 20
175.6012774318711
 30
0.0
  0
POINT
  5
1032
330
100A
100
AcDbEntity
  8
Defpoints
 62
     0
100
AcDbPoint
 10
187.4938735333414
 20
175.6012774318711
 30
0.0
  0
ENDBLK
  5
100C
330
100A
100
AcDbEntity
  8
0
100
AcDbBlockEnd
  0
BLOCK
  5
1035
330
1034
100
AcDbEntity
  8
0
100
AcDbBlockBegin
  2
*D11
 70
     1
 10
0.0
 20
0.0
 30
0.0
  3
*D11
  1

  0
LINE
  5
105D
330
1034
100
AcDbEntity
  8
AM_5
100
AcDbLine
 10
160.0061241729114
 20
220.1834584318711
 30
0.0
 11
160.0061241729114
 21
251.0763864990031
 31
0.0
  0
LINE
  5
105E
330
1034
100
AcDbEntity
  8
AM_5
100
AcDbLine
 10
100.0197771729114
 20
220.1834584318711
 30
0.0
 11
100.0197771729114
 21
251.0763864990031
 31
0.0
  0
LINE
  5
105F
330
1034
100
AcDbEntity
  8
AM_5
100
AcDbLine
 10
157.5061241729114
 20
250.0763864990031
 30
0.0
 11
102.5197771729114
 21
250.0763864990031
 31
0.0
  0
SOLID
  5
1060
330
1034
100
AcDbEntity
  8
AM_5
100
AcDbTrace
 10
157.5061241729114
 20
250.4930531656698
 30
0.0
 11
157.5061241729114
 21
249.6597198323364
 31
0.0
 12
160.0061241729114
 22
250.0763864990031
 32
0.0
 13
160.0061241729114
 23
250.0763864990031
 33
0.0
  0
SOLID
  5
1061
330
1034
100
AcDbEntity
  8
AM_5
100
AcDbTrace
 10
102.5197771729114
 20
250.4930531656698
 30
0.0
 11
102.5197771729114
 21
249.6597198323364
 31
0.0
 12
100.0197771729114
 22
250.0763864990031
 32
0.0
 13
100.0197771729114
 23
250.0763864990031
 33
0.0
  0
MTEXT
  5
1062
330
1034
100
AcDbEntity
  8
AM_5
 62
     2
100
AcDbMText
 10
130.0129506729114
 20
252.5763864990031
 30
0.0
 40
3.0
 41
0.0
 71
     5
 72
     1
  1
60
 73
     1
 44
1.0
1001
ACAD
1000
MTEXTBEGIN
1070
    73
1070
     1
1070
    44
1040
1.0
1070
    74
1070
     0
1000
MTEXTEND
  0
POINT
  5
1063
330
1034
100
AcDbEntity
  8
Defpoints
 62
     0
100
AcDbPoint
 10
160.0061241729114
 20
219.1834584318712
 30
0.0
  0
POINT
  5
1064
330
1034
100
AcDbEntity
  8
Defpoints
 62
     0
100
AcDbPoint
 10
100.0197771729114
 20
219.1834584318712
 30
0.0
  0
POINT
  5
1065
330
1034
100
AcDbEntity
  8
Defpoints
 62
     0
100
AcDbPoint
 10
100.0197771729114
 20
250.0763864990031
 30
0.0
  0
ENDBLK
  5
1036
330
1034
100
AcDbEntity
  8
0
100
AcDbBlockEnd
  0
BLOCK
  5
1068
330
1067
100
AcDbEntity
  8
0
100
AcDbBlockBegin
  2
*D12
 70
     1
 10
0.0
 20
0.0
 30
0.0
  3
*D12
  1

  0
LINE
  5
1082
330
1067
100
AcDbEntity
  8
AM_5
100
AcDbLine
 10
96.52208217291146
 20
213.5955134318711
 30
0.0
 11
87.45974524956954
 21
213.5955134318711
 31
0.0
  0
LINE
  5
1083
330
1067
100
AcDbEntity
  8
AM_5
100
AcDbLine
 10
96.52208217291146
 20
217.5959584318711
 30
0.0
 11
87.45974524956954
 21
217.5959584318711
 31
0.0
  0
LINE
  5
1084
330
1067
100
AcDbEntity
  8
AM_5
100
AcDbLine
 10
88.45974524956956
 20
211.0955134318711
 30
0.0
 11
88.45974524956956
 21
208.5955134318711
 31
0.0
  0
LINE
  5
1085
330
1067
100
AcDbEntity
  8
AM_5
100
AcDbLine
 10
88.45974524956956
 20
220.0959584318711
 30
0.0
 11
88.45974524956956
 21
222.5959584318712
 31
0.0
  0
LINE
  5
1086
330
1067
100
AcDbEntity
  8
AM_5
100
AcDbLine
 10
88.45974524956956
 20
213.5955134318711
 30
0.0
 11
88.45974524956956
 21
217.5959584318711
 31
0.0
  0
SOLID
  5
1087
330
1067
100
AcDbEntity
  8
AM_5
100
AcDbTrace
 10
88.04307858290288
 20
211.0955134318711
 30
0.0
 11
88.87641191623622
 21
211.0955134318711
 31
0.0
 12
88.45974524956956
 22
213.5955134318711
 32
0.0
 13
88.45974524956956
 23
213.5955134318711
 33
0.0
  0
SOLID
  5
1088
330
1067
100
AcDbEntity
  8
AM_5
100
AcDbTrace
 10
88.04307858290288
 20
220.0959584318711
 30
0.0
 11
88.87641191623622
 21
220.0959584318711
 31
0.0
 12
88.45974524956956
 22
217.5959584318711
 32
0.0
 13
88.45974524956956
 23
217.5959584318711
 33
0.0
  0
MTEXT
  5
1089
330
1067
100
AcDbEntity
  8
AM_5
 62
     2
100
AcDbMText
 10
85.95974524956952
 20
215.5957359318712
 30
0.0
 40
3.0
 41
0.0
 71
     5
 72
     1
  1
4
 11
0.0000000000000001
 21
1.0
 31
0.0
 73
     1
 44
1.0
1001
ACAD
1000
MTEXTBEGIN
1070
    73
1070
     1
1070
    44
1040
1.0
1070
    74
1070
     0
1000
MTEXTEND
  0
POINT
  5
108A
330
1067
100
AcDbEntity
  8
Defpoints
 62
     0
100
AcDbPoint
 10
97.52208217291146
 20
213.5955134318711
 30
0.0
  0
POINT
  5
108B
330
1067
100
AcDbEntity
  8
Defpoints
 62
     0
100
AcDbPoint
 10
97.52208217291146
 20
217.5959584318711
 30
0.0
  0
POINT
  5
108C
330
1067
100
AcDbEntity
  8
Defpoints
 62
     0
100
AcDbPoint
 10
88.45974524956956
 20
217.5959584318711
 30
0.0
  0
ENDBLK
  5
1069
330
1067
100
AcDbEntity
  8
0
100
AcDbBlockEnd
  0
BLOCK
  5
108F
330
108E
100
AcDbEntity
  8
0
100
AcDbBlockBegin
  2
*D13
 70
     1
 10
0.0
 20
0.0
 30
0.0
  3
*D13
  1

  0
LINE
  5
10A9
330
108E
100
AcDbEntity
  8
AM_5
100
AcDbLine
 10
96.52208217291146
 20
177.5908204318711
 30
0.0
 11
88.49983317291146
 21
177.5908204318711
 31
0.0
  0
LINE
  5
10AA
330
108E
100
AcDbEntity
  8
AM_5
100
AcDbLine
 10
96.52208217291146
 20
173.5903754318711
 30
0.0
 11
88.49983317291146
 21
173.5903754318711
 31
0.0
  0
LINE
  5
10AB
330
108E
100
AcDbEntity
  8
AM_5
100
AcDbLine
 10
89.49983317291145
 20
180.0908204318711
 30
0.0
 11
89.49983317291145
 21
182.5908204318711
 31
0.0
  0
LINE
  5
10AC
330
108E
100
AcDbEntity
  8
AM_5
100
AcDbLine
 10
89.49983317291145
 20
171.0903754318711
 30
0.0
 11
89.49983317291145
 21
168.5903754318711
 31
0.0
  0
LINE
  5
10AD
330
108E
100
AcDbEntity
  8
AM_5
100
AcDbLine
 10
89.49983317291145
 20
177.5908204318711
 30
0.0
 11
89.49983317291145
 21
173.5903754318711
 31
0.0
  0
SOLID
  5
10AE
330
108E
100
AcDbEntity
  8
AM_5
100
AcDbTrace
 10
89.08316650624477
 20
180.0908204318711
 30
0.0
 11
89.91649983957811
 21
180.0908204318711
 31
0.0
 12
89.49983317291145
 22
177.5908204318711
 32
0.0
 13
89.49983317291145
 23
177.5908204318711
 33
0.0
  0
SOLID
  5
10AF
330
108E
100
AcDbEntity
  8
AM_5
100
AcDbTrace
 10
89.08316650624477
 20
171.0903754318711
 30
0.0
 11
89.91649983957811
 21
171.0903754318711
 31
0.0
 12
89.49983317291145
 22
173.5903754318711
 32
0.0
 13
89.49983317291145
 23
173.5903754318711
 33
0.0
  0
MTEXT
  5
10B0
330
108E
100
AcDbEntity
  8
AM_5
 62
     2
100
AcDbMText
 10
86.99983317291142
 20
175.5905979318711
 30
0.0
 40
3.0
 41
0.0
 71
     5
 72
     1
  1
4
 11
0.0000000000000001
 21
1.0
 31
0.0
 73
     1
 44
1.0
1001
ACAD
1000
MTEXTBEGIN
1070
    73
1070
     1
1070
    44
1040
1.0
1070
    74
1070
     0
1000
MTEXTEND
  0
POINT
  5
10B1
330
108E
100
AcDbEntity
  8
Defpoints
 62
     0
100
AcDbPoint
 10
97.52208217291146
 20
177.5908204318711
 30
0.0
  0
POINT
  5
10B2
330
108E
100
AcDbEntity
  8
Defpoints
 62
     0
100
AcDbPoint
 10
97.52208217291146
 20
173.5903754318711
 30
0.0
  0
POINT
  5
10B3
330
108E
100
AcDbEntity
  8
Defpoints
 62
     0
100
AcDbPoint
 10
89.49983317291145
 20
173.5903754318711
 30
0.0
  0
ENDBLK
  5
1090
330
108E
100
AcDbEntity
  8
0
100
AcDbBlockEnd
  0
BLOCK
  5
10B6
330
10B5
100
AcDbEntity
  8
0
100
AcDbBlockBegin
  2
*D14
 70
     1
 10
0.0
 20
0.0
 30
0.0
  3
*D14
  1

  0
LINE
  5
10DE
330
10B5
100
AcDbEntity
  8
AM_5
100
AcDbLine
 10
103.0202221729114
 20
230.8463124318711
 30
0.0
 11
76.4604734347579
 21
230.8463124318711
 31
0.0
  0
LINE
  5
10DF
330
10B5
100
AcDbEntity
  8
AM_5
100
AcDbLine
 10
103.0202221729114
 20
160.3612094318711
 30
0.0
 11
76.46047343475789
 21
160.3612094318711
 31
0.0
  0
LINE
  5
10E0
330
10B5
100
AcDbEntity
  8
AM_5
100
AcDbLine
 10
77.4604734347579
 20
228.3463124318712
 30
0.0
 11
77.46047343475789
 21
162.8612094318711
 31
0.0
  0
SOLID
  5
10E1
330
10B5
100
AcDbEntity
  8
AM_5
100
AcDbTrace
 10
77.04380676809122
 20
228.3463124318712
 30
0.0
 11
77.87714010142457
 21
228.3463124318712
 31
0.0
 12
77.4604734347579
 22
230.8463124318711
 32
0.0
 13
77.4604734347579
 23
230.8463124318711
 33
0.0
  0
SOLID
  5
10E2
330
10B5
100
AcDbEntity
  8
AM_5
100
AcDbTrace
 10
77.04380676809122
 20
162.8612094318711
 30
0.0
 11
77.87714010142456
 21
162.8612094318711
 31
0.0
 12
77.46047343475789
 22
160.3612094318711
 32
0.0
 13
77.46047343475789
 23
160.3612094318711
 33
0.0
  0
MTEXT
  5
10E3
330
10B5
100
AcDbEntity
  8
AM_5
 62
     2
100
AcDbMText
 10
74.96047343475786
 20
195.6037609318712
 30
0.0
 40
3.0
 41
0.0
 71
     5
 72
     1
  1
70.5
 11
0.0000000000000001
 21
1.0
 31
0.0
 73
     1
 44
1.0
1001
ACAD
1000
MTEXTBEGIN
1070
    73
1070
     1
1070
    44
1040
1.0
1070
    74
1070
     0
1000
MTEXTEND
  0
POINT
  5
10E4
330
10B5
100
AcDbEntity
  8
Defpoints
 62
     0
100
AcDbPoint
 10
104.0202221729114
 20
230.8463124318711
 30
0.0
  0
POINT
  5
10E5
330
10B5
100
AcDbEntity
  8
Defpoints
 62
     0
100
AcDbPoint
 10
104.0202221729114
 20
160.3612094318711
 30
0.0
  0
POINT
  5
10E6
330
10B5
100
AcDbEntity
  8
Defpoints
 62
     0
100
AcDbPoint
 10
77.46047343475789
 20
160.3612094318711
 30
0.0
  0
ENDBLK
  5
10B7
330
10B5
100
AcDbEntity
  8
0
100
AcDbBlockEnd
  0
ENDSEC
  0
SECTION
  2
ENTITIES
  0
MTEXT
  5
143
330
75
100
AcDbEntity
  8
レイヤー_1_0
 62
     7
100
AcDbMText
 10
70.25728882530639
 20
16.70127221824583
 30
0.0
 40
4.390912999999998
 41
0.0
 71
     1
 72
     2
  1
\fMS PGothic|b0|i0|c128;株式会社 ダイワインダストリ
  7
KANJISTD
 73
     1
 44
1.0
1001
ACAD
1000
MTEXTBEGIN
1070
    73
1070
     1
1070
    44
1040
1.0
1070
    74
1070
     0
1000
MTEXTEND
  0
LWPOLYLINE
  5
144
330
75
100
AcDbEntity
  8
枠
  6
Continuous
100
AcDbPolyline
 90
        4
 70
     1
 43
0.0
 10
0.0000005962378964
 20
0.0000004583823738
 10
210.0000005962379
 20
0.0000004583823738
 10
210.0000005962379
 20
297.0000004583824
 10
0.0000005962379248
 20
297.0000004583824
1001
GENIUS_GENREC_14
1002
{
1000
PYDIR
1011
0.0000005962379146
1021
297.0000004583824
1031
0.0
1002
}
1002
{
1000
PXDIR
1011
210.0000005962379
1021
0.0000004583823738
1031
0.0
1002
}
1002
{
1000
PORI
1011
0.0000005962378964
1021
0.0000004583823738
1031
0.0
1002
}
1002
{
1000
PINS
1011
0.0000005962378964
1021
0.0000004583823738
1031
0.0
1002
}
1002
{
1000
PINS2
1011
210.0000005962379
1021
297.0000004583824
1031
0.0
1002
}
1002
{
1000
C
1070
     1
1002
}
1001
GENIUS_GENOBJ-N-REC_13
1002
{
1000
OWNER
1000
GEN
1002
}
1001
GENIUS_GENODEF_13
1002
{
1000
HIER
1070
     0
1002
}
1002
{
1000
MANEDIT
1070
     0
1002
}
1002
{
1000
NOSEL
1070
     0
1002
}
1002
{
1000
BEHIND
1070
     0
1002
}
1002
{
1000
OTHER
1070
     0
1002
}
1002
{
1000
REACTOR
1002
}
  0
LWPOLYLINE
  5
145
330
75
100
AcDbEntity
  8
外形線
  6
Continuous
100
AcDbPolyline
 90
        4
 70
     1
 43
0.0
 10
11.60259079470369
 20
280.2064268369188
 10
196.3427498015165
 20
280.2064268369188
 10
196.3427498015165
 20
24.16351391153563
 10
11.60259079470367
 20
24.16351391153565
1001
GENIUS_GENREC_14
1002
{
1000
PYDIR
1011
11.60259079470368
1021
24.16351391153563
1031
0.0
1002
}
1002
{
1000
PXDIR
1011
196.3427498015165
1021
280.2064268369188
1031
0.0
1002
}
1002
{
1000
PORI
1011
11.60259079470369
1021
280.2064268369188
1031
0.0
1002
}
1002
{
1000
PINS
1011
11.60259079470369
1021
280.2064268369188
1031
0.0
1002
}
1002
{
1000
PINS2
1011
196.3427498015165
1021
24.16351391153563
1031
0.0
1002
}
1002
{
1000
C
1070
     1
1002
}
1001
GENIUS_GENODEF_13
1002
{
1000
HIER
1070
     0
1002
}
1002
{
1000
MANEDIT
1070
     0
1002
}
1002
{
1000
NOSEL
1070
     0
1002
}
1002
{
1000
BEHIND
1070
     0
1002
}
1002
{
1000
OTHER
1070
     0
1002
}
1002
{
1000
REACTOR
1002
}
1001
GENIUS_GENOBJ-N-REC_13
1002
{
1000
OWNER
1000
GEN
1002
}
  0
MTEXT
  5
146
330
75
100
AcDbEntity
  8
外形線
  6
Continuous
100
AcDbMText
 10
13.91068452073341
 20
31.00153342264298
 30
0.0
 40
4.0
 41
85.59488932217835
 71
     1
 72
     5
  1
{\fMS PGothic|b0|i0|c128|p50;\W1;品名：ワケーブル変換ユニット}
 73
     1
 44
1.0
1001
ACAD
1000
MTEXTBEGIN
1070
    73
1070
     1
1070
    44
1040
1.0
1070
    74
1070
     0
1000
MTEXTEND
1000
ACAD_MTEXT_DEFINED_HEIGHT_BEGIN
1070
    46
1040
10.33309109091124
1000
ACAD_MTEXT_DEFINED_HEIGHT_END
  0
MTEXT
  5
147
330
75
100
AcDbEntity
  8
外形線
  6
Continuous
100
AcDbMText
 10
101.7136921777195
 20
30.65536822327544
 30
0.0
 40
4.0
 41
62.79417921438346
 71
     1
 72
     5
  1
{\fMS PGothic|b0|i0|c128|p50;\W1;品番：CPM-400}
 73
     1
 44
1.0
1001
ACAD
1000
MTEXTBEGIN
1070
    73
1070
     1
1070
    44
1040
1.0
1070
    74
1070
     0
1000
MTEXTEND
1000
ACAD_MTEXT_DEFINED_HEIGHT_BEGIN
1070
    46
1040
5.173549736409313
1000
ACAD_MTEXT_DEFINED_HEIGHT_END
  0
MTEXT
  5
148
330
75
100
AcDbEntity
  8
外形線
  6
Continuous
100
AcDbMText
 10
168.3287606251567
 20
29.84595850511801
 30
0.0
 40
3.5
 41
25.04345815552802
 71
     1
 72
     5
  1
{\fMS PGothic|b0|i0|c128|p50;\W1;No.：1/1}
 73
     1
 44
1.0
1001
ACAD
1000
MTEXTBEGIN
1070
    73
1070
     1
1070
    44
1040
1.0
1070
    74
1070
     0
1000
MTEXTEND
1000
ACAD_MTEXT_DEFINED_HEIGHT_BEGIN
1070
    46
1040
4.957403205357532
1000
ACAD_MTEXT_DEFINED_HEIGHT_END
  0
MTEXT
  5
154
330
75
100
AcDbEntity
  8
レイヤー_1_0
 62
     7
100
AcDbMText
 10
18.18553122906851
 20
271.3098666133168
 30
0.0
 40
2.744320999999998
 41
0.0
 71
     1
 72
     2
  1
\fMS PGothic|b0|i0|c128;■ 外形図
  7
KANJISTD
 73
     1
 44
1.0
1001
ACAD
1000
MTEXTBEGIN
1070
    73
1070
     1
1070
    44
1040
1.0
1070
    74
1070
     0
1000
MTEXTEND
  0
LINE
  5
155
330
75
100
AcDbEntity
  8
外形線
  6
Continuous
100
AcDbLine
 10
11.65926085451633
 20
32.1199291769567
 30
0.0
 11
196.3435303386709
 21
32.1199291769567
 31
0.0
  0
MTEXT
  5
156
330
75
100
AcDbEntity
  8
枠
  6
Continuous
100
AcDbMText
 10
178.9060871603465
 20
42.63997074936265
 30
0.0
 40
3.0
 41
18.0892528424788
 71
     1
 72
     5
  1
(mm)
 73
     1
 44
1.0
1001
ACAD
1000
MTEXTBEGIN
1070
    73
1070
     1
1070
    44
1040
1.0
1070
    74
1070
     0
1000
MTEXTEND
  0
LINE
  5
1B5
330
75
100
AcDbEntity
  8
外形線
  6
Continuous
100
AcDbLine
 10
100.1244175688603
 20
32.1042682801114
 30
0.0
 11
100.1244175688603
 21
24.16625294823945
 31
0.0
  0
LINE
  5
1B6
330
75
100
AcDbEntity
  8
外形線
  6
Continuous
100
AcDbLine
 10
166.2523584809159
 20
32.1178433227995
 30
0.0
 11
166.2523584809159
 21
24.17761320759633
 31
0.0
  0
LINE
  5
95D
330
75
100
AcDbEntity
  8
レイヤー_1
 62
     7
100
AcDbLine
 10
97.26817917291146
 20
175.6012774318711
 30
0.0
 11
96.44273417291145
 21
175.6012774318711
 31
0.0
  0
LINE
  5
95E
330
75
100
AcDbEntity
  8
レイヤー_1
 62
     7
100
AcDbLine
 10
98.70754017291147
 20
175.6012774318711
 30
0.0
 11
97.75497117291145
 21
175.6012774318711
 31
0.0
  0
LINE
  5
95F
330
75
100
AcDbEntity
  8
レイヤー_1
 62
     7
100
AcDbLine
 10
100.0197771729114
 20
175.6012774318711
 30
0.0
 11
99.17297217291146
 21
175.6012774318711
 31
0.0
  0
LINE
  5
960
330
75
100
AcDbEntity
  8
レイヤー_1
 62
     7
100
AcDbLine
 10
100.0197771729114
 20
178.3528754318711
 30
0.0
 11
100.0197771729114
 21
179.1996804318711
 31
0.0
  0
LINE
  5
961
330
75
100
AcDbEntity
  8
レイヤー_1
 62
     7
100
AcDbLine
 10
100.0197771729114
 20
176.9135144318711
 30
0.0
 11
100.0197771729114
 21
177.8660834318711
 31
0.0
  0
LINE
  5
962
330
75
100
AcDbEntity
  8
レイヤー_1
 62
     7
100
AcDbLine
 10
100.0197771729114
 20
175.6012774318711
 30
0.0
 11
100.0197771729114
 21
176.4480824318711
 31
0.0
  0
LINE
  5
963
330
75
100
AcDbEntity
  8
レイヤー_1
 62
     7
100
AcDbLine
 10
102.7713741729114
 20
175.6012774318711
 30
0.0
 11
103.6181791729114
 21
175.6012774318711
 31
0.0
  0
LINE
  5
964
330
75
100
AcDbEntity
  8
レイヤー_1
 62
     7
100
AcDbLine
 10
101.3533731729114
 20
175.6012774318711
 30
0.0
 11
102.3059421729114
 21
175.6012774318711
 31
0.0
  0
LINE
  5
965
330
75
100
AcDbEntity
  8
レイヤー_1
 62
     7
100
AcDbLine
 10
100.0197771729114
 20
175.6012774318711
 30
0.0
 11
100.8665811729114
 21
175.6012774318711
 31
0.0
  0
LINE
  5
966
330
75
100
AcDbEntity
  8
レイヤー_1
 62
     7
100
AcDbLine
 10
100.0197771729114
 20
172.8496804318711
 30
0.0
 11
100.0197771729114
 21
172.0028754318711
 31
0.0
  0
LINE
  5
967
330
75
100
AcDbEntity
  8
レイヤー_1
 62
     7
100
AcDbLine
 10
100.0197771729114
 20
174.2890414318711
 30
0.0
 11
100.0197771729114
 21
173.3364724318711
 31
0.0
  0
LINE
  5
968
330
75
100
AcDbEntity
  8
レイヤー_1
 62
     7
100
AcDbLine
 10
100.0197771729114
 20
175.6012774318711
 30
0.0
 11
100.0197771729114
 21
174.7544734318711
 31
0.0
  0
LINE
  5
969
330
75
100
AcDbEntity
  8
レイヤー_1
 62
     7
100
AcDbLine
 10
97.26817917291146
 20
215.6062434318711
 30
0.0
 11
96.44273417291145
 21
215.6062434318711
 31
0.0
  0
LINE
  5
96A
330
75
100
AcDbEntity
  8
レイヤー_1
 62
     7
100
AcDbLine
 10
98.70754017291147
 20
215.6062434318711
 30
0.0
 11
97.75497117291145
 21
215.6062434318711
 31
0.0
  0
LINE
  5
96B
330
75
100
AcDbEntity
  8
レイヤー_1
 62
     7
100
AcDbLine
 10
100.0197771729114
 20
215.6062434318711
 30
0.0
 11
99.17297217291146
 21
215.6062434318711
 31
0.0
  0
LINE
  5
96C
102
{ACAD_REACTORS
330
1041
102
}
330
75
100
AcDbEntity
  8
レイヤー_1
 62
     7
100
AcDbLine
 10
100.0197771729114
 20
218.3580134318711
 30
0.0
 11
100.0197771729114
 21
219.1834584318712
 31
0.0
  0
LINE
  5
96D
330
75
100
AcDbEntity
  8
レイヤー_1
 62
     7
100
AcDbLine
 10
100.0197771729114
 20
216.9186524318711
 30
0.0
 11
100.0197771729114
 21
217.8712214318711
 31
0.0
  0
LINE
  5
96E
330
75
100
AcDbEntity
  8
レイヤー_1
 62
     7
100
AcDbLine
 10
100.0197771729114
 20
215.6062434318711
 30
0.0
 11
100.0197771729114
 21
216.4530474318711
 31
0.0
  0
LINE
  5
96F
330
75
100
AcDbEntity
  8
レイヤー_1
 62
     7
100
AcDbLine
 10
102.7713741729114
 20
215.6062434318711
 30
0.0
 11
103.6181791729114
 21
215.6062434318711
 31
0.0
  0
LINE
  5
970
330
75
100
AcDbEntity
  8
レイヤー_1
 62
     7
100
AcDbLine
 10
101.3533731729114
 20
215.6062434318711
 30
0.0
 11
102.3059421729114
 21
215.6062434318711
 31
0.0
  0
LINE
  5
971
330
75
100
AcDbEntity
  8
レイヤー_1
 62
     7
100
AcDbLine
 10
100.0197771729114
 20
215.6062434318711
 30
0.0
 11
100.8665811729114
 21
215.6062434318711
 31
0.0
  0
LINE
  5
972
330
75
100
AcDbEntity
  8
レイヤー_1
 62
     7
100
AcDbLine
 10
100.0197771729114
 20
212.8546454318711
 30
0.0
 11
100.0197771729114
 21
212.0080134318711
 31
0.0
  0
LINE
  5
973
330
75
100
AcDbEntity
  8
レイヤー_1
 62
     7
100
AcDbLine
 10
100.0197771729114
 20
214.2728194318711
 30
0.0
 11
100.0197771729114
 21
213.3202504318711
 31
0.0
  0
LINE
  5
974
330
75
100
AcDbEntity
  8
レイヤー_1
 62
     7
100
AcDbLine
 10
100.0197771729114
 20
215.6062434318711
 30
0.0
 11
100.0197771729114
 21
214.7596114318711
 31
0.0
  0
LINE
  5
975
330
75
100
AcDbEntity
  8
レイヤー_1
 62
     7
100
AcDbLine
 10
157.2755411729114
 20
175.6012774318711
 30
0.0
 11
156.4290811729114
 21
175.6012774318711
 31
0.0
  0
LINE
  5
976
330
75
100
AcDbEntity
  8
レイヤー_1
 62
     7
100
AcDbLine
 10
158.6938871729114
 20
175.6012774318711
 30
0.0
 11
157.7413181729114
 21
175.6012774318711
 31
0.0
  0
LINE
  5
977
330
75
100
AcDbEntity
  8
レイヤー_1
 62
     7
100
AcDbLine
 10
160.0061241729114
 20
175.6012774318711
 30
0.0
 11
159.1806791729114
 21
175.6012774318711
 31
0.0
  0
LINE
  5
978
330
75
100
AcDbEntity
  8
レイヤー_1
 62
     7
100
AcDbLine
 10
160.0061241729114
 20
178.3528754318711
 30
0.0
 11
160.0061241729114
 21
179.1996804318711
 31
0.0
  0
LINE
  5
979
330
75
100
AcDbEntity
  8
レイヤー_1
 62
     7
100
AcDbLine
 10
160.0061241729114
 20
176.9135144318711
 30
0.0
 11
160.0061241729114
 21
177.8660834318711
 31
0.0
  0
LINE
  5
97A
330
75
100
AcDbEntity
  8
レイヤー_1
 62
     7
100
AcDbLine
 10
160.0061241729114
 20
175.6012774318711
 30
0.0
 11
160.0061241729114
 21
176.4480824318711
 31
0.0
  0
LINE
  5
97B
102
{ACAD_REACTORS
330
1017
102
}
330
75
100
AcDbEntity
  8
レイヤー_1
 62
     7
100
AcDbLine
 10
162.7577221729114
 20
175.6012774318711
 30
0.0
 11
163.6045261729114
 21
175.6012774318711
 31
0.0
  0
LINE
  5
97C
330
75
100
AcDbEntity
  8
レイヤー_1
 62
     7
100
AcDbLine
 10
161.3397201729114
 20
175.6012774318711
 30
0.0
 11
162.2922891729114
 21
175.6012774318711
 31
0.0
  0
LINE
  5
97D
330
75
100
AcDbEntity
  8
レイヤー_1
 62
     7
100
AcDbLine
 10
160.0061241729114
 20
175.6012774318711
 30
0.0
 11
160.8529281729114
 21
175.6012774318711
 31
0.0
  0
LINE
  5
97E
330
75
100
AcDbEntity
  8
レイヤー_1
 62
     7
100
AcDbLine
 10
160.0061241729114
 20
172.8496804318711
 30
0.0
 11
160.0061241729114
 21
172.0028754318711
 31
0.0
  0
LINE
  5
97F
330
75
100
AcDbEntity
  8
レイヤー_1
 62
     7
100
AcDbLine
 10
160.0061241729114
 20
174.2890414318711
 30
0.0
 11
160.0061241729114
 21
173.3364724318711
 31
0.0
  0
LINE
  5
980
330
75
100
AcDbEntity
  8
レイヤー_1
 62
     7
100
AcDbLine
 10
160.0061241729114
 20
175.6012774318711
 30
0.0
 11
160.0061241729114
 21
174.7544734318711
 31
0.0
  0
LINE
  5
981
330
75
100
AcDbEntity
  8
レイヤー_1
 62
     7
100
AcDbLine
 10
157.2755411729114
 20
215.6062434318711
 30
0.0
 11
156.4290811729114
 21
215.6062434318711
 31
0.0
  0
LINE
  5
982
330
75
100
AcDbEntity
  8
レイヤー_1
 62
     7
100
AcDbLine
 10
158.6938871729114
 20
215.6062434318711
 30
0.0
 11
157.7413181729114
 21
215.6062434318711
 31
0.0
  0
LINE
  5
983
330
75
100
AcDbEntity
  8
レイヤー_1
 62
     7
100
AcDbLine
 10
160.0061241729114
 20
215.6062434318711
 30
0.0
 11
159.1806791729114
 21
215.6062434318711
 31
0.0
  0
LINE
  5
984
102
{ACAD_REACTORS
330
1041
102
}
330
75
100
AcDbEntity
  8
レイヤー_1
 62
     7
100
AcDbLine
 10
160.0061241729114
 20
218.3580134318711
 30
0.0
 11
160.0061241729114
 21
219.1834584318712
 31
0.0
  0
LINE
  5
985
330
75
100
AcDbEntity
  8
レイヤー_1
 62
     7
100
AcDbLine
 10
160.0061241729114
 20
216.9186524318711
 30
0.0
 11
160.0061241729114
 21
217.8712214318711
 31
0.0
  0
LINE
  5
986
330
75
100
AcDbEntity
  8
レイヤー_1
 62
     7
100
AcDbLine
 10
160.0061241729114
 20
215.6062434318711
 30
0.0
 11
160.0061241729114
 21
216.4530474318711
 31
0.0
  0
LINE
  5
987
102
{ACAD_REACTORS
330
1017
102
}
330
75
100
AcDbEntity
  8
レイヤー_1
 62
     7
100
AcDbLine
 10
162.7577221729114
 20
215.6062434318711
 30
0.0
 11
163.6045261729114
 21
215.6062434318711
 31
0.0
  0
LINE
  5
988
330
75
100
AcDbEntity
  8
レイヤー_1
 62
     7
100
AcDbLine
 10
161.3397201729114
 20
215.6062434318711
 30
0.0
 11
162.2922891729114
 21
215.6062434318711
 31
0.0
  0
LINE
  5
989
330
75
100
AcDbEntity
  8
レイヤー_1
 62
     7
100
AcDbLine
 10
160.0061241729114
 20
215.6062434318711
 30
0.0
 11
160.8529281729114
 21
215.6062434318711
 31
0.0
  0
LINE
  5
98A
330
75
100
AcDbEntity
  8
レイヤー_1
 62
     7
100
AcDbLine
 10
160.0061241729114
 20
212.8546454318711
 30
0.0
 11
160.0061241729114
 21
212.0080134318711
 31
0.0
  0
LINE
  5
98B
330
75
100
AcDbEntity
  8
レイヤー_1
 62
     7
100
AcDbLine
 10
160.0061241729114
 20
214.2728194318711
 30
0.0
 11
160.0061241729114
 21
213.3202504318711
 31
0.0
  0
LINE
  5
98C
330
75
100
AcDbEntity
  8
レイヤー_1
 62
     7
100
AcDbLine
 10
160.0061241729114
 20
215.6062434318711
 30
0.0
 11
160.0061241729114
 21
214.7596114318711
 31
0.0
  0
POLYLINE
  5
9D6
330
75
100
AcDbEntity
  8
レイヤー_1
 62
     7
100
AcDb2dPolyline
 66
     1
 10
0.0
 20
0.0
 30
0.0
 70
     1
  0
VERTEX
  5
9D7
330
9D6
100
AcDbEntity
  8
レイヤー_1
 62
     7
100
AcDbVertex
100
AcDb2dVertex
 10
43.61047217291146
 20
149.4392224318711
 30
0.0
  0
VERTEX
  5
9D8
330
9D6
100
AcDbEntity
  8
レイヤー_1
 62
     7
100
AcDbVertex
100
AcDb2dVertex
 10
44.52066617291145
 20
149.4392224318711
 30
0.0
  0
VERTEX
  5
9D9
330
9D6
100
AcDbEntity
  8
レイヤー_1
 62
     7
100
AcDbVertex
100
AcDb2dVertex
 10
44.52066617291145
 20
150.6246804318711
 30
0.0
  0
VERTEX
  5
9DA
330
9D6
100
AcDbEntity
  8
レイヤー_1
 62
     7
100
AcDbVertex
100
AcDb2dVertex
 10
43.61047217291146
 20
150.6246804318711
 30
0.0
  0
SEQEND
  5
9DB
330
9D6
100
AcDbEntity
  8
レイヤー_1
 62
     7
  0
POLYLINE
  5
9DC
330
75
100
AcDbEntity
  8
レイヤー_1
 62
     7
100
AcDb2dPolyline
 66
     1
 10
0.0
 20
0.0
 30
0.0
 70
     1
  0
VERTEX
  5
9DD
330
9DC
100
AcDbEntity
  8
レイヤー_1
 62
     7
100
AcDbVertex
100
AcDb2dVertex
 10
53.51650017291145
 20
150.6246804318711
 30
0.0
  0
VERTEX
  5
9DE
330
9DC
100
AcDbEntity
  8
レイヤー_1
 62
     7
100
AcDbVertex
100
AcDb2dVertex
 10
54.42669417291146
 20
150.6246804318711
 30
0.0
  0
VERTEX
  5
9DF
330
9DC
100
AcDbEntity
  8
レイヤー_1
 62
     7
100
AcDbVertex
100
AcDb2dVertex
 10
54.42669417291146
 20
149.4392224318711
 30
0.0
  0
VERTEX
  5
9E0
330
9DC
100
AcDbEntity
  8
レイヤー_1
 62
     7
100
AcDbVertex
100
AcDb2dVertex
 10
53.51650017291145
 20
149.4392224318711
 30
0.0
  0
SEQEND
  5
9E1
330
9DC
100
AcDbEntity
  8
レイヤー_1
 62
     7
  0
POLYLINE
  5
9E2
330
75
100
AcDbEntity
  8
レイヤー_1
 62
     7
100
AcDb2dPolyline
 66
     1
 10
0.0
 20
0.0
 30
0.0
  0
VERTEX
  5
9E3
330
9E2
100
AcDbEntity
  8
レイヤー_1
 62
     7
100
AcDbVertex
100
AcDb2dVertex
 10
53.60124917291146
 20
133.2469294318711
 30
0.0
  0
VERTEX
  5
9E4
330
9E2
100
AcDbEntity
  8
レイヤー_1
 62
     7
100
AcDbVertex
100
AcDb2dVertex
 10
52.16188817291146
 20
132.6116534318711
 30
0.0
  0
VERTEX
  5
9E5
330
9E2
100
AcDbEntity
  8
レイヤー_1
 62
     7
100
AcDbVertex
100
AcDb2dVertex
 10
51.42119317291145
 20
132.2943604318711
 30
0.0
  0
VERTEX
  5
9E6
330
9E2
100
AcDbEntity
  8
レイヤー_1
 62
     7
100
AcDbVertex
100
AcDb2dVertex
 10
50.68049717291145
 20
132.0190974318711
 30
0.0
  0
VERTEX
  5
9E7
330
9E2
100
AcDbEntity
  8
レイヤー_1
 62
     7
100
AcDbVertex
100
AcDb2dVertex
 10
49.96047217291145
 20
131.8285834318711
 30
0.0
  0
VERTEX
  5
9E8
330
9E2
100
AcDbEntity
  8
レイヤー_1
 62
     7
100
AcDbVertex
100
AcDb2dVertex
 10
49.21977717291145
 20
131.7438344318711
 30
0.0
  0
VERTEX
  5
9E9
330
9E2
100
AcDbEntity
  8
レイヤー_1
 62
     7
100
AcDbVertex
100
AcDb2dVertex
 10
48.50009617291146
 20
131.8285834318711
 30
0.0
  0
VERTEX
  5
9EA
330
9E2
100
AcDbEntity
  8
レイヤー_1
 62
     7
100
AcDbVertex
100
AcDb2dVertex
 10
47.80177517291146
 20
132.0190974318711
 30
0.0
  0
VERTEX
  5
9EB
330
9E2
100
AcDbEntity
  8
レイヤー_1
 62
     7
100
AcDbVertex
100
AcDb2dVertex
 10
46.29902517291145
 20
132.5906384318711
 30
0.0
  0
VERTEX
  5
9EC
330
9E2
100
AcDbEntity
  8
レイヤー_1
 62
     7
100
AcDbVertex
100
AcDb2dVertex
 10
45.49425017291145
 20
132.8445424318711
 30
0.0
  0
VERTEX
  5
9ED
330
9E2
100
AcDbEntity
  8
レイヤー_1
 62
     7
100
AcDbVertex
100
AcDb2dVertex
 10
44.69016517291145
 20
132.9926814318711
 30
0.0
  0
VERTEX
  5
9EE
330
9E2
100
AcDbEntity
  8
レイヤー_1
 62
     7
100
AcDbVertex
100
AcDb2dVertex
 10
44.30913817291146
 20
133.0140414318711
 30
0.0
  0
VERTEX
  5
9EF
330
9E2
100
AcDbEntity
  8
レイヤー_1
 62
     7
100
AcDbVertex
100
AcDb2dVertex
 10
43.92811017291145
 20
132.9503064318711
 30
0.0
  0
VERTEX
  5
9F0
330
9E2
100
AcDbEntity
  8
レイヤー_1
 62
     7
100
AcDbVertex
100
AcDb2dVertex
 10
43.58945717291145
 20
132.8445424318711
 30
0.0
  0
VERTEX
  5
9F1
330
9E2
100
AcDbEntity
  8
レイヤー_1
 62
     7
100
AcDbVertex
100
AcDb2dVertex
 10
43.25080417291146
 20
132.6540284318711
 30
0.0
  0
VERTEX
  5
9F2
330
9E2
100
AcDbEntity
  8
レイヤー_1
 62
     7
100
AcDbVertex
100
AcDb2dVertex
 10
42.67926317291145
 20
132.1462214318711
 30
0.0
  0
VERTEX
  5
9F3
330
9E2
100
AcDbEntity
  8
レイヤー_1
 62
     7
100
AcDbVertex
100
AcDb2dVertex
 10
42.36197017291146
 20
131.9133334318711
 30
0.0
  0
VERTEX
  5
9F4
330
9E2
100
AcDbEntity
  8
レイヤー_1
 62
     7
100
AcDbVertex
100
AcDb2dVertex
 10
42.02297217291145
 20
131.7651934318711
 30
0.0
  0
SEQEND
  5
9F5
330
9E2
100
AcDbEntity
  8
レイヤー_1
 62
     7
  0
POLYLINE
  5
9F6
330
75
100
AcDbEntity
  8
レイヤー_1
 62
     7
100
AcDb2dPolyline
 66
     1
 10
0.0
 20
0.0
 30
0.0
  0
VERTEX
  5
9F7
330
9F6
100
AcDbEntity
  8
レイヤー_1
 62
     7
100
AcDbVertex
100
AcDb2dVertex
 10
47.18785917291145
 20
132.2519854318711
 30
0.0
  0
VERTEX
  5
9F8
330
9F6
100
AcDbEntity
  8
レイヤー_1
 62
     7
100
AcDbVertex
100
AcDb2dVertex
 10
47.18785917291145
 20
159.3242354318711
 30
0.0
  0
VERTEX
  5
9F9
330
9F6
100
AcDbEntity
  8
レイヤー_1
 62
     7
100
AcDbVertex
100
AcDb2dVertex
 10
50.84965117291146
 20
159.3242354318711
 30
0.0
  0
VERTEX
  5
9FA
330
9F6
100
AcDbEntity
  8
レイヤー_1
 62
     7
100
AcDbVertex
100
AcDb2dVertex
 10
50.84965117291146
 20
132.0614724318711
 30
0.0
  0
SEQEND
  5
9FB
330
9F6
100
AcDbEntity
  8
レイヤー_1
 62
     7
  0
POLYLINE
  5
9FC
330
75
100
AcDbEntity
  8
レイヤー_1
 62
     7
100
AcDb2dPolyline
 66
     1
 10
0.0
 20
0.0
 30
0.0
 70
     1
  0
VERTEX
  5
9FD
330
9FC
100
AcDbEntity
  8
レイヤー_1
 62
     7
100
AcDbVertex
100
AcDb2dVertex
 10
45.17695717291146
 20
160.3612094318711
 30
0.0
  0
VERTEX
  5
9FE
330
9FC
100
AcDbEntity
  8
レイヤー_1
 62
     7
100
AcDbVertex
100
AcDb2dVertex
 10
52.88156917291145
 20
160.3612094318711
 30
0.0
  0
VERTEX
  5
9FF
330
9FC
100
AcDbEntity
  8
レイヤー_1
 62
     7
100
AcDbVertex
100
AcDb2dVertex
 10
52.88156917291145
 20
159.3242354318711
 30
0.0
  0
VERTEX
  5
A00
330
9FC
100
AcDbEntity
  8
レイヤー_1
 62
     7
100
AcDbVertex
100
AcDb2dVertex
 10
45.17695717291146
 20
159.3242354318711
 30
0.0
  0
SEQEND
  5
A01
330
9FC
100
AcDbEntity
  8
レイヤー_1
 62
     7
  0
POLYLINE
  5
A02
330
75
100
AcDbEntity
  8
レイヤー_1
 62
     7
100
AcDb2dPolyline
 66
     1
 10
0.0
 20
0.0
 30
0.0
  0
VERTEX
  5
A03
330
A02
100
AcDbEntity
  8
レイヤー_1
 62
     7
100
AcDbVertex
100
AcDb2dVertex
 10
50.84965117291146
 20
159.0913464318711
 30
0.0
  0
VERTEX
  5
A04
330
A02
100
AcDbEntity
  8
レイヤー_1
 62
     7
100
AcDbVertex
100
AcDb2dVertex
 10
53.51650017291145
 20
159.0913464318711
 30
0.0
  0
VERTEX
  5
A05
330
A02
100
AcDbEntity
  8
レイヤー_1
 62
     7
100
AcDbVertex
100
AcDb2dVertex
 10
53.51650017291145
 20
146.7299994318711
 30
0.0
  0
VERTEX
  5
A06
330
A02
100
AcDbEntity
  8
レイヤー_1
 62
     7
100
AcDbVertex
100
AcDb2dVertex
 10
50.84965117291146
 20
146.7299994318711
 30
0.0
  0
SEQEND
  5
A07
330
A02
100
AcDbEntity
  8
レイヤー_1
 62
     7
  0
POLYLINE
  5
A08
330
75
100
AcDbEntity
  8
レイヤー_1
 62
     7
100
AcDb2dPolyline
 66
     1
 10
0.0
 20
0.0
 30
0.0
  0
VERTEX
  5
A09
330
A08
100
AcDbEntity
  8
レイヤー_1
 62
     7
100
AcDbVertex
100
AcDb2dVertex
 10
47.18785917291145
 20
146.7299994318711
 30
0.0
  0
VERTEX
  5
A0A
330
A08
100
AcDbEntity
  8
レイヤー_1
 62
     7
100
AcDbVertex
100
AcDb2dVertex
 10
44.54202617291145
 20
146.7299994318711
 30
0.0
  0
VERTEX
  5
A0B
330
A08
100
AcDbEntity
  8
レイヤー_1
 62
     7
100
AcDbVertex
100
AcDb2dVertex
 10
44.54202617291145
 20
159.0913464318711
 30
0.0
  0
VERTEX
  5
A0C
330
A08
100
AcDbEntity
  8
レイヤー_1
 62
     7
100
AcDbVertex
100
AcDb2dVertex
 10
47.18785917291145
 20
159.0913464318711
 30
0.0
  0
SEQEND
  5
A0D
330
A08
100
AcDbEntity
  8
レイヤー_1
 62
     7
  0
POLYLINE
  5
A0E
330
75
100
AcDbEntity
  8
レイヤー_1
 62
     7
100
AcDb2dPolyline
 66
     1
 10
0.0
 20
0.0
 30
0.0
  0
VERTEX
  5
A0F
330
A0E
100
AcDbEntity
  8
レイヤー_1
 62
     7
100
AcDbVertex
100
AcDb2dVertex
 10
47.18785917291145
 20
159.0913464318711
 30
0.0
  0
VERTEX
  5
A10
330
A0E
100
AcDbEntity
  8
レイヤー_1
 62
     7
100
AcDbVertex
100
AcDb2dVertex
 10
42.76401217291145
 20
159.0913464318711
 30
0.0
  0
VERTEX
  5
A11
330
A0E
100
AcDbEntity
  8
レイヤー_1
 62
     7
100
AcDbVertex
100
AcDb2dVertex
 10
42.76401217291145
 20
160.3612094318711
 30
0.0
  0
VERTEX
  5
A12
330
A0E
100
AcDbEntity
  8
レイヤー_1
 62
     7
100
AcDbVertex
100
AcDb2dVertex
 10
55.27349817291145
 20
160.3612094318711
 30
0.0
  0
VERTEX
  5
A13
330
A0E
100
AcDbEntity
  8
レイヤー_1
 62
     7
100
AcDbVertex
100
AcDb2dVertex
 10
55.27349817291145
 20
159.0913464318711
 30
0.0
  0
VERTEX
  5
A14
330
A0E
100
AcDbEntity
  8
レイヤー_1
 62
     7
100
AcDbVertex
100
AcDb2dVertex
 10
50.84965117291146
 20
159.0913464318711
 30
0.0
  0
SEQEND
  5
A15
330
A0E
100
AcDbEntity
  8
レイヤー_1
 62
     7
  0
POLYLINE
  5
A16
330
75
100
AcDbEntity
  8
レイヤー_1
 62
     7
100
AcDb2dPolyline
 66
     1
 10
0.0
 20
0.0
 30
0.0
  0
VERTEX
  5
A17
330
A16
100
AcDbEntity
  8
レイヤー_1
 62
     7
100
AcDbVertex
100
AcDb2dVertex
 10
119.5779281729114
 20
133.2469294318711
 30
0.0
  0
VERTEX
  5
A18
330
A16
100
AcDbEntity
  8
レイヤー_1
 62
     7
100
AcDbVertex
100
AcDb2dVertex
 10
118.1385671729114
 20
132.6116534318711
 30
0.0
  0
VERTEX
  5
A19
330
A16
100
AcDbEntity
  8
レイヤー_1
 62
     7
100
AcDbVertex
100
AcDb2dVertex
 10
117.3975271729114
 20
132.2943604318711
 30
0.0
  0
VERTEX
  5
A1A
330
A16
100
AcDbEntity
  8
レイヤー_1
 62
     7
100
AcDbVertex
100
AcDb2dVertex
 10
116.6778471729114
 20
132.0190974318711
 30
0.0
  0
VERTEX
  5
A1B
330
A16
100
AcDbEntity
  8
レイヤー_1
 62
     7
100
AcDbVertex
100
AcDb2dVertex
 10
115.9371511729114
 20
131.8285834318711
 30
0.0
  0
VERTEX
  5
A1C
330
A16
100
AcDbEntity
  8
レイヤー_1
 62
     7
100
AcDbVertex
100
AcDb2dVertex
 10
115.1964561729114
 20
131.7438344318711
 30
0.0
  0
VERTEX
  5
A1D
330
A16
100
AcDbEntity
  8
レイヤー_1
 62
     7
100
AcDbVertex
100
AcDb2dVertex
 10
114.4977901729114
 20
131.8285834318711
 30
0.0
  0
VERTEX
  5
A1E
330
A16
100
AcDbEntity
  8
レイヤー_1
 62
     7
100
AcDbVertex
100
AcDb2dVertex
 10
113.7781101729114
 20
132.0190974318711
 30
0.0
  0
VERTEX
  5
A1F
330
A16
100
AcDbEntity
  8
レイヤー_1
 62
     7
100
AcDbVertex
100
AcDb2dVertex
 10
112.2963741729114
 20
132.5906384318711
 30
0.0
  0
VERTEX
  5
A20
330
A16
100
AcDbEntity
  8
レイヤー_1
 62
     7
100
AcDbVertex
100
AcDb2dVertex
 10
111.4922891729114
 20
132.8445424318711
 30
0.0
  0
VERTEX
  5
A21
330
A16
100
AcDbEntity
  8
レイヤー_1
 62
     7
100
AcDbVertex
100
AcDb2dVertex
 10
110.6878591729114
 20
132.9926814318711
 30
0.0
  0
VERTEX
  5
A22
330
A16
100
AcDbEntity
  8
レイヤー_1
 62
     7
100
AcDbVertex
100
AcDb2dVertex
 10
110.2854721729114
 20
133.0140414318711
 30
0.0
  0
VERTEX
  5
A23
330
A16
100
AcDbEntity
  8
レイヤー_1
 62
     7
100
AcDbVertex
100
AcDb2dVertex
 10
109.9047891729114
 20
132.9503064318711
 30
0.0
  0
VERTEX
  5
A24
330
A16
100
AcDbEntity
  8
レイヤー_1
 62
     7
100
AcDbVertex
100
AcDb2dVertex
 10
109.5657921729114
 20
132.8445424318711
 30
0.0
  0
VERTEX
  5
A25
330
A16
100
AcDbEntity
  8
レイヤー_1
 62
     7
100
AcDbVertex
100
AcDb2dVertex
 10
109.2271391729114
 20
132.6540284318711
 30
0.0
  0
VERTEX
  5
A26
330
A16
100
AcDbEntity
  8
レイヤー_1
 62
     7
100
AcDbVertex
100
AcDb2dVertex
 10
108.6559421729115
 20
132.1462214318711
 30
0.0
  0
VERTEX
  5
A27
330
A16
100
AcDbEntity
  8
レイヤー_1
 62
     7
100
AcDbVertex
100
AcDb2dVertex
 10
108.3383041729114
 20
131.9133334318711
 30
0.0
  0
VERTEX
  5
A28
330
A16
100
AcDbEntity
  8
レイヤー_1
 62
     7
100
AcDbVertex
100
AcDb2dVertex
 10
107.9996511729114
 20
131.7651934318711
 30
0.0
  0
SEQEND
  5
A29
330
A16
100
AcDbEntity
  8
レイヤー_1
 62
     7
  0
POLYLINE
  5
A2A
330
75
100
AcDbEntity
  8
レイヤー_1
 62
     7
100
AcDb2dPolyline
 66
     1
 10
0.0
 20
0.0
 30
0.0
  0
VERTEX
  5
A2B
330
A2A
100
AcDbEntity
  8
レイヤー_1
 62
     7
100
AcDbVertex
100
AcDb2dVertex
 10
113.1855541729114
 20
132.2519854318711
 30
0.0
  0
VERTEX
  5
A2C
330
A2A
100
AcDbEntity
  8
レイヤー_1
 62
     7
100
AcDbVertex
100
AcDb2dVertex
 10
113.1855541729114
 20
159.3242354318711
 30
0.0
  0
VERTEX
  5
A2D
330
A2A
100
AcDbEntity
  8
レイヤー_1
 62
     7
100
AcDbVertex
100
AcDb2dVertex
 10
116.8259861729114
 20
159.3242354318711
 30
0.0
  0
VERTEX
  5
A2E
330
A2A
100
AcDbEntity
  8
レイヤー_1
 62
     7
100
AcDbVertex
100
AcDb2dVertex
 10
116.8259861729114
 20
132.0614724318711
 30
0.0
  0
SEQEND
  5
A2F
330
A2A
100
AcDbEntity
  8
レイヤー_1
 62
     7
  0
POLYLINE
  5
A30
330
75
100
AcDbEntity
  8
レイヤー_1
 62
     7
100
AcDb2dPolyline
 66
     1
 10
0.0
 20
0.0
 30
0.0
 70
     1
  0
VERTEX
  5
A31
330
A30
100
AcDbEntity
  8
レイヤー_1
 62
     7
100
AcDbVertex
100
AcDb2dVertex
 10
111.1532921729114
 20
160.3612094318711
 30
0.0
  0
VERTEX
  5
A32
330
A30
100
AcDbEntity
  8
レイヤー_1
 62
     7
100
AcDbVertex
100
AcDb2dVertex
 10
118.8582481729115
 20
160.3612094318711
 30
0.0
  0
VERTEX
  5
A33
330
A30
100
AcDbEntity
  8
レイヤー_1
 62
     7
100
AcDbVertex
100
AcDb2dVertex
 10
118.8582481729115
 20
159.3242354318711
 30
0.0
  0
VERTEX
  5
A34
330
A30
100
AcDbEntity
  8
レイヤー_1
 62
     7
100
AcDbVertex
100
AcDb2dVertex
 10
111.1532921729114
 20
159.3242354318711
 30
0.0
  0
SEQEND
  5
A35
330
A30
100
AcDbEntity
  8
レイヤー_1
 62
     7
  0
POLYLINE
  5
A36
330
75
100
AcDbEntity
  8
レイヤー_1
 62
     7
100
AcDb2dPolyline
 66
     1
 10
0.0
 20
0.0
 30
0.0
  0
VERTEX
  5
A37
330
A36
100
AcDbEntity
  8
レイヤー_1
 62
     7
100
AcDbVertex
100
AcDb2dVertex
 10
128.5313871729114
 20
159.7052624318711
 30
0.0
  0
VERTEX
  5
A38
330
A36
100
AcDbEntity
  8
レイヤー_1
 62
     7
100
AcDbVertex
100
AcDb2dVertex
 10
128.8486801729114
 20
159.4299994318711
 30
0.0
  0
VERTEX
  5
A39
330
A36
100
AcDbEntity
  8
レイヤー_1
 62
     7
100
AcDbVertex
100
AcDb2dVertex
 10
129.2086931729114
 20
159.2184704318711
 30
0.0
  0
VERTEX
  5
A3A
330
A36
100
AcDbEntity
  8
レイヤー_1
 62
     7
100
AcDbVertex
100
AcDb2dVertex
 10
129.6107351729114
 20
159.0913464318711
 30
0.0
  0
VERTEX
  5
A3B
330
A36
100
AcDbEntity
  8
レイヤー_1
 62
     7
100
AcDbVertex
100
AcDb2dVertex
 10
130.0131231729114
 20
159.0489724318711
 30
0.0
  0
VERTEX
  5
A3C
330
A36
100
AcDbEntity
  8
レイヤー_1
 62
     7
100
AcDbVertex
100
AcDb2dVertex
 10
130.4361801729114
 20
159.0913464318711
 30
0.0
  0
VERTEX
  5
A3D
330
A36
100
AcDbEntity
  8
レイヤー_1
 62
     7
100
AcDbVertex
100
AcDb2dVertex
 10
130.8385671729114
 20
159.2184704318711
 30
0.0
  0
VERTEX
  5
A3E
330
A36
100
AcDbEntity
  8
レイヤー_1
 62
     7
100
AcDbVertex
100
AcDb2dVertex
 10
131.1982351729114
 20
159.4299994318711
 30
0.0
  0
VERTEX
  5
A3F
330
A36
100
AcDbEntity
  8
レイヤー_1
 62
     7
100
AcDbVertex
100
AcDb2dVertex
 10
131.5158731729114
 20
159.7052624318711
 30
0.0
  0
SEQEND
  5
A40
330
A36
100
AcDbEntity
  8
レイヤー_1
 62
     7
  0
POLYLINE
  5
A41
330
75
100
AcDbEntity
  8
レイヤー_1
 62
     7
100
AcDb2dPolyline
 66
     1
 10
0.0
 20
0.0
 30
0.0
 70
     1
  0
VERTEX
  5
A42
330
A41
100
AcDbEntity
  8
レイヤー_1
 62
     7
100
AcDbVertex
100
AcDb2dVertex
 10
127.5574581729114
 20
160.3612094318711
 30
0.0
  0
VERTEX
  5
A43
330
A41
100
AcDbEntity
  8
レイヤー_1
 62
     7
100
AcDbVertex
100
AcDb2dVertex
 10
132.4894571729114
 20
160.3612094318711
 30
0.0
  0
VERTEX
  5
A44
330
A41
100
AcDbEntity
  8
レイヤー_1
 62
     7
100
AcDbVertex
100
AcDb2dVertex
 10
132.4894571729114
 20
159.7052624318711
 30
0.0
  0
VERTEX
  5
A45
330
A41
100
AcDbEntity
  8
レイヤー_1
 62
     7
100
AcDbVertex
100
AcDb2dVertex
 10
127.5574581729114
 20
159.7052624318711
 30
0.0
  0
SEQEND
  5
A46
330
A41
100
AcDbEntity
  8
レイヤー_1
 62
     7
  0
POLYLINE
  5
A47
330
75
100
AcDbEntity
  8
レイヤー_1
 62
     7
100
AcDb2dPolyline
 66
     1
 10
0.0
 20
0.0
 30
0.0
 70
     1
  0
VERTEX
  5
A48
330
A47
100
AcDbEntity
  8
レイヤー_1
 62
     7
100
AcDbVertex
100
AcDb2dVertex
 10
145.2104721729114
 20
149.4392224318711
 30
0.0
  0
VERTEX
  5
A49
330
A47
100
AcDbEntity
  8
レイヤー_1
 62
     7
100
AcDbVertex
100
AcDb2dVertex
 10
145.4433611729115
 20
149.4815974318711
 30
0.0
  0
VERTEX
  5
A4A
330
A47
100
AcDbEntity
  8
レイヤー_1
 62
     7
100
AcDbVertex
100
AcDb2dVertex
 10
145.6338741729114
 20
149.6087214318711
 30
0.0
  0
VERTEX
  5
A4B
330
A47
100
AcDbEntity
  8
レイヤー_1
 62
     7
100
AcDbVertex
100
AcDb2dVertex
 10
145.7609991729114
 20
149.7992354318711
 30
0.0
  0
VERTEX
  5
A4C
330
A47
100
AcDbEntity
  8
レイヤー_1
 62
     7
100
AcDbVertex
100
AcDb2dVertex
 10
145.8033731729114
 20
150.0321234318711
 30
0.0
  0
VERTEX
  5
A4D
330
A47
100
AcDbEntity
  8
レイヤー_1
 62
     7
100
AcDbVertex
100
AcDb2dVertex
 10
145.7609991729114
 20
150.2646674318711
 30
0.0
  0
VERTEX
  5
A4E
330
A47
100
AcDbEntity
  8
レイヤー_1
 62
     7
100
AcDbVertex
100
AcDb2dVertex
 10
145.6338741729114
 20
150.4551814318711
 30
0.0
  0
VERTEX
  5
A4F
330
A47
100
AcDbEntity
  8
レイヤー_1
 62
     7
100
AcDbVertex
100
AcDb2dVertex
 10
145.4433611729115
 20
150.5823054318711
 30
0.0
  0
VERTEX
  5
A50
330
A47
100
AcDbEntity
  8
レイヤー_1
 62
     7
100
AcDbVertex
100
AcDb2dVertex
 10
145.2104721729114
 20
150.6246804318711
 30
0.0
  0
VERTEX
  5
A51
330
A47
100
AcDbEntity
  8
レイヤー_1
 62
     7
100
AcDbVertex
100
AcDb2dVertex
 10
144.9989431729114
 20
150.5823054318711
 30
0.0
  0
VERTEX
  5
A52
330
A47
100
AcDbEntity
  8
レイヤー_1
 62
     7
100
AcDbVertex
100
AcDb2dVertex
 10
144.8084301729114
 20
150.4551814318711
 30
0.0
  0
VERTEX
  5
A53
330
A47
100
AcDbEntity
  8
レイヤー_1
 62
     7
100
AcDbVertex
100
AcDb2dVertex
 10
144.6813061729114
 20
150.2646674318711
 30
0.0
  0
VERTEX
  5
A54
330
A47
100
AcDbEntity
  8
レイヤー_1
 62
     7
100
AcDbVertex
100
AcDb2dVertex
 10
144.6392751729114
 20
150.0321234318711
 30
0.0
  0
VERTEX
  5
A55
330
A47
100
AcDbEntity
  8
レイヤー_1
 62
     7
100
AcDbVertex
100
AcDb2dVertex
 10
144.6813061729114
 20
149.7992354318711
 30
0.0
  0
VERTEX
  5
A56
330
A47
100
AcDbEntity
  8
レイヤー_1
 62
     7
100
AcDbVertex
100
AcDb2dVertex
 10
144.8084301729114
 20
149.6087214318711
 30
0.0
  0
VERTEX
  5
A57
330
A47
100
AcDbEntity
  8
レイヤー_1
 62
     7
100
AcDbVertex
100
AcDb2dVertex
 10
144.9989431729114
 20
149.4815974318711
 30
0.0
  0
SEQEND
  5
A58
330
A47
100
AcDbEntity
  8
レイヤー_1
 62
     7
  0
POLYLINE
  5
A59
330
75
100
AcDbEntity
  8
レイヤー_1
 62
     7
100
AcDb2dPolyline
 66
     1
 10
0.0
 20
0.0
 30
0.0
 70
     1
  0
VERTEX
  5
A5A
330
A59
100
AcDbEntity
  8
レイヤー_1
 62
     7
100
AcDbVertex
100
AcDb2dVertex
 10
140.5327221729114
 20
159.0913464318711
 30
0.0
  0
VERTEX
  5
A5B
330
A59
100
AcDbEntity
  8
レイヤー_1
 62
     7
100
AcDbVertex
100
AcDb2dVertex
 10
149.5075401729114
 20
159.0913464318711
 30
0.0
  0
VERTEX
  5
A5C
330
A59
100
AcDbEntity
  8
レイヤー_1
 62
     7
100
AcDbVertex
100
AcDb2dVertex
 10
149.5075401729114
 20
146.7299994318711
 30
0.0
  0
VERTEX
  5
A5D
330
A59
100
AcDbEntity
  8
レイヤー_1
 62
     7
100
AcDbVertex
100
AcDb2dVertex
 10
140.5327221729114
 20
146.7299994318711
 30
0.0
  0
SEQEND
  5
A5E
330
A59
100
AcDbEntity
  8
レイヤー_1
 62
     7
  0
POLYLINE
  5
A5F
330
75
100
AcDbEntity
  8
レイヤー_1
 62
     7
100
AcDb2dPolyline
 66
     1
 10
0.0
 20
0.0
 30
0.0
 70
     1
  0
VERTEX
  5
A60
330
A5F
100
AcDbEntity
  8
レイヤー_1
 62
     7
100
AcDbVertex
100
AcDb2dVertex
 10
138.7547081729114
 20
160.3612094318711
 30
0.0
  0
VERTEX
  5
A61
330
A5F
100
AcDbEntity
  8
レイヤー_1
 62
     7
100
AcDbVertex
100
AcDb2dVertex
 10
151.2641941729114
 20
160.3612094318711
 30
0.0
  0
VERTEX
  5
A62
330
A5F
100
AcDbEntity
  8
レイヤー_1
 62
     7
100
AcDbVertex
100
AcDb2dVertex
 10
151.2641941729114
 20
159.0913464318711
 30
0.0
  0
VERTEX
  5
A63
330
A5F
100
AcDbEntity
  8
レイヤー_1
 62
     7
100
AcDbVertex
100
AcDb2dVertex
 10
138.7547081729114
 20
159.0913464318711
 30
0.0
  0
SEQEND
  5
A64
330
A5F
100
AcDbEntity
  8
レイヤー_1
 62
     7
  0
POLYLINE
  5
A65
330
75
100
AcDbEntity
  8
レイヤー_1
 62
     7
100
AcDb2dPolyline
 66
     1
 10
0.0
 20
0.0
 30
0.0
  0
VERTEX
  5
A66
330
A65
100
AcDbEntity
  8
レイヤー_1
 62
     7
100
AcDbVertex
100
AcDb2dVertex
 10
144.6392751729114
 20
95.78168843187112
 30
0.0
  0
VERTEX
  5
A67
330
A65
100
AcDbEntity
  8
レイヤー_1
 62
     7
100
AcDbVertex
100
AcDb2dVertex
 10
144.6392751729114
 20
94.95624343187115
 30
0.0
  0
VERTEX
  5
A68
330
A65
100
AcDbEntity
  8
レイヤー_1
 62
     7
100
AcDbVertex
100
AcDb2dVertex
 10
145.4009861729114
 20
94.95624343187115
 30
0.0
  0
VERTEX
  5
A69
330
A65
100
AcDbEntity
  8
レイヤー_1
 62
     7
100
AcDbVertex
100
AcDb2dVertex
 10
145.4009861729114
 20
95.78168843187112
 30
0.0
  0
SEQEND
  5
A6A
330
A65
100
AcDbEntity
  8
レイヤー_1
 62
     7
  0
POLYLINE
  5
A6B
330
75
100
AcDbEntity
  8
レイヤー_1
 62
     7
100
AcDb2dPolyline
 66
     1
 10
0.0
 20
0.0
 30
0.0
  0
VERTEX
  5
A6C
330
A6B
100
AcDbEntity
  8
レイヤー_1
 62
     7
100
AcDbVertex
100
AcDb2dVertex
 10
144.6392751729114
 20
104.7354914318711
 30
0.0
  0
VERTEX
  5
A6D
330
A6B
100
AcDbEntity
  8
レイヤー_1
 62
     7
100
AcDbVertex
100
AcDb2dVertex
 10
144.6392751729114
 20
105.5609364318711
 30
0.0
  0
VERTEX
  5
A6E
330
A6B
100
AcDbEntity
  8
レイヤー_1
 62
     7
100
AcDbVertex
100
AcDb2dVertex
 10
145.4009861729114
 20
105.5609364318711
 30
0.0
  0
VERTEX
  5
A6F
330
A6B
100
AcDbEntity
  8
レイヤー_1
 62
     7
100
AcDbVertex
100
AcDb2dVertex
 10
145.4009861729114
 20
104.7354914318711
 30
0.0
  0
SEQEND
  5
A70
330
A6B
100
AcDbEntity
  8
レイヤー_1
 62
     7
  0
POLYLINE
  5
A71
330
75
100
AcDbEntity
  8
レイヤー_1
 62
     7
100
AcDb2dPolyline
 66
     1
 10
0.0
 20
0.0
 30
0.0
 70
     1
  0
VERTEX
  5
A72
330
A71
100
AcDbEntity
  8
レイヤー_1
 62
     7
100
AcDbVertex
100
AcDb2dVertex
 10
145.0199581729114
 20
99.44382443187116
 30
0.0
  0
VERTEX
  5
A73
330
A71
100
AcDbEntity
  8
レイヤー_1
 62
     7
100
AcDbVertex
100
AcDb2dVertex
 10
145.2528471729114
 20
99.48585543187114
 30
0.0
  0
VERTEX
  5
A74
330
A71
100
AcDbEntity
  8
レイヤー_1
 62
     7
100
AcDbVertex
100
AcDb2dVertex
 10
145.4857351729114
 20
99.61263443187114
 30
0.0
  0
VERTEX
  5
A75
330
A71
100
AcDbEntity
  8
レイヤー_1
 62
     7
100
AcDbVertex
100
AcDb2dVertex
 10
145.6762491729114
 20
99.78213343187114
 30
0.0
  0
VERTEX
  5
A76
330
A71
100
AcDbEntity
  8
レイヤー_1
 62
     7
100
AcDbVertex
100
AcDb2dVertex
 10
145.7820141729114
 20
100.0150214318711
 30
0.0
  0
VERTEX
  5
A77
330
A71
100
AcDbEntity
  8
レイヤー_1
 62
     7
100
AcDbVertex
100
AcDb2dVertex
 10
145.8243881729114
 20
100.2692694318711
 30
0.0
  0
VERTEX
  5
A78
330
A71
100
AcDbEntity
  8
レイヤー_1
 62
     7
100
AcDbVertex
100
AcDb2dVertex
 10
145.7820141729114
 20
100.5228284318711
 30
0.0
  0
VERTEX
  5
A79
330
A71
100
AcDbEntity
  8
レイヤー_1
 62
     7
100
AcDbVertex
100
AcDb2dVertex
 10
145.6762491729114
 20
100.7350464318711
 30
0.0
  0
VERTEX
  5
A7A
330
A71
100
AcDbEntity
  8
レイヤー_1
 62
     7
100
AcDbVertex
100
AcDb2dVertex
 10
145.4857351729114
 20
100.9252154318711
 30
0.0
  0
VERTEX
  5
A7B
330
A71
100
AcDbEntity
  8
レイヤー_1
 62
     7
100
AcDbVertex
100
AcDb2dVertex
 10
145.2528471729114
 20
101.0313244318711
 30
0.0
  0
VERTEX
  5
A7C
330
A71
100
AcDbEntity
  8
レイヤー_1
 62
     7
100
AcDbVertex
100
AcDb2dVertex
 10
145.0199581729114
 20
101.0733554318711
 30
0.0
  0
VERTEX
  5
A7D
330
A71
100
AcDbEntity
  8
レイヤー_1
 62
     7
100
AcDbVertex
100
AcDb2dVertex
 10
144.7660551729114
 20
101.0313244318711
 30
0.0
  0
VERTEX
  5
A7E
330
A71
100
AcDbEntity
  8
レイヤー_1
 62
     7
100
AcDbVertex
100
AcDb2dVertex
 10
144.5331661729114
 20
100.9252154318711
 30
0.0
  0
VERTEX
  5
A7F
330
A71
100
AcDbEntity
  8
レイヤー_1
 62
     7
100
AcDbVertex
100
AcDb2dVertex
 10
144.3640121729114
 20
100.7350464318711
 30
0.0
  0
VERTEX
  5
A80
330
A71
100
AcDbEntity
  8
レイヤー_1
 62
     7
100
AcDbVertex
100
AcDb2dVertex
 10
144.2368881729114
 20
100.5228284318711
 30
0.0
  0
VERTEX
  5
A81
330
A71
100
AcDbEntity
  8
レイヤー_1
 62
     7
100
AcDbVertex
100
AcDb2dVertex
 10
144.1945141729114
 20
100.2692694318711
 30
0.0
  0
VERTEX
  5
A82
330
A71
100
AcDbEntity
  8
レイヤー_1
 62
     7
100
AcDbVertex
100
AcDb2dVertex
 10
144.2368881729114
 20
100.0150214318711
 30
0.0
  0
VERTEX
  5
A83
330
A71
100
AcDbEntity
  8
レイヤー_1
 62
     7
100
AcDbVertex
100
AcDb2dVertex
 10
144.3640121729114
 20
99.78213343187114
 30
0.0
  0
VERTEX
  5
A84
330
A71
100
AcDbEntity
  8
レイヤー_1
 62
     7
100
AcDbVertex
100
AcDb2dVertex
 10
144.5331661729114
 20
99.61263443187114
 30
0.0
  0
VERTEX
  5
A85
330
A71
100
AcDbEntity
  8
レイヤー_1
 62
     7
100
AcDbVertex
100
AcDb2dVertex
 10
144.7660551729114
 20
99.48585543187114
 30
0.0
  0
SEQEND
  5
A86
330
A71
100
AcDbEntity
  8
レイヤー_1
 62
     7
  0
POLYLINE
  5
A87
330
75
100
AcDbEntity
  8
レイヤー_1
 62
     7
100
AcDb2dPolyline
 66
     1
 10
0.0
 20
0.0
 30
0.0
 70
     1
  0
VERTEX
  5
A88
330
A87
100
AcDbEntity
  8
レイヤー_1
 62
     7
100
AcDbVertex
100
AcDb2dVertex
 10
145.0199581729114
 20
98.38549143187114
 30
0.0
  0
VERTEX
  5
A89
330
A87
100
AcDbEntity
  8
レイヤー_1
 62
     7
100
AcDbVertex
100
AcDb2dVertex
 10
145.3799711729114
 20
98.42752143187114
 30
0.0
  0
VERTEX
  5
A8A
330
A87
100
AcDbEntity
  8
レイヤー_1
 62
     7
100
AcDbVertex
100
AcDb2dVertex
 10
145.7396391729114
 20
98.53363043187114
 30
0.0
  0
VERTEX
  5
A8B
330
A87
100
AcDbEntity
  8
レイヤー_1
 62
     7
100
AcDbVertex
100
AcDb2dVertex
 10
146.0572771729114
 20
98.70312943187112
 30
0.0
  0
VERTEX
  5
A8C
330
A87
100
AcDbEntity
  8
レイヤー_1
 62
     7
100
AcDbVertex
100
AcDb2dVertex
 10
146.3325401729114
 20
98.93532843187113
 30
0.0
  0
VERTEX
  5
A8D
330
A87
100
AcDbEntity
  8
レイヤー_1
 62
     7
100
AcDbVertex
100
AcDb2dVertex
 10
146.5654281729114
 20
99.21093643187113
 30
0.0
  0
VERTEX
  5
A8E
330
A87
100
AcDbEntity
  8
レイヤー_1
 62
     7
100
AcDbVertex
100
AcDb2dVertex
 10
146.7559421729114
 20
99.54924443187115
 30
0.0
  0
VERTEX
  5
A8F
330
A87
100
AcDbEntity
  8
レイヤー_1
 62
     7
100
AcDbVertex
100
AcDb2dVertex
 10
146.8617071729114
 20
99.88824243187114
 30
0.0
  0
VERTEX
  5
A90
330
A87
100
AcDbEntity
  8
レイヤー_1
 62
     7
100
AcDbVertex
100
AcDb2dVertex
 10
146.8827221729114
 20
100.2692694318711
 30
0.0
  0
VERTEX
  5
A91
330
A87
100
AcDbEntity
  8
レイヤー_1
 62
     7
100
AcDbVertex
100
AcDb2dVertex
 10
146.8617071729114
 20
100.6289374318711
 30
0.0
  0
VERTEX
  5
A92
330
A87
100
AcDbEntity
  8
レイヤー_1
 62
     7
100
AcDbVertex
100
AcDb2dVertex
 10
146.7559421729114
 20
100.9886054318711
 30
0.0
  0
VERTEX
  5
A93
330
A87
100
AcDbEntity
  8
レイヤー_1
 62
     7
100
AcDbVertex
100
AcDb2dVertex
 10
146.5654281729114
 20
101.3062434318711
 30
0.0
  0
VERTEX
  5
A94
330
A87
100
AcDbEntity
  8
レイヤー_1
 62
     7
100
AcDbVertex
100
AcDb2dVertex
 10
146.3325401729114
 20
101.5811624318711
 30
0.0
  0
VERTEX
  5
A95
330
A87
100
AcDbEntity
  8
レイヤー_1
 62
     7
100
AcDbVertex
100
AcDb2dVertex
 10
146.0572771729114
 20
101.8140504318711
 30
0.0
  0
VERTEX
  5
A96
330
A87
100
AcDbEntity
  8
レイヤー_1
 62
     7
100
AcDbVertex
100
AcDb2dVertex
 10
145.7396391729114
 20
102.0049084318711
 30
0.0
  0
VERTEX
  5
A97
330
A87
100
AcDbEntity
  8
レイヤー_1
 62
     7
100
AcDbVertex
100
AcDb2dVertex
 10
145.3799711729114
 20
102.1103284318711
 30
0.0
  0
VERTEX
  5
A98
330
A87
100
AcDbEntity
  8
レイヤー_1
 62
     7
100
AcDbVertex
100
AcDb2dVertex
 10
145.0199581729114
 20
102.1316884318711
 30
0.0
  0
VERTEX
  5
A99
330
A87
100
AcDbEntity
  8
レイヤー_1
 62
     7
100
AcDbVertex
100
AcDb2dVertex
 10
144.6392751729114
 20
102.1103284318711
 30
0.0
  0
VERTEX
  5
A9A
330
A87
100
AcDbEntity
  8
レイヤー_1
 62
     7
100
AcDbVertex
100
AcDb2dVertex
 10
144.3006231729114
 20
102.0049084318711
 30
0.0
  0
VERTEX
  5
A9B
330
A87
100
AcDbEntity
  8
レイヤー_1
 62
     7
100
AcDbVertex
100
AcDb2dVertex
 10
143.9616251729114
 20
101.8140504318711
 30
0.0
  0
VERTEX
  5
A9C
330
A87
100
AcDbEntity
  8
レイヤー_1
 62
     7
100
AcDbVertex
100
AcDb2dVertex
 10
143.6867071729114
 20
101.5811624318711
 30
0.0
  0
VERTEX
  5
A9D
330
A87
100
AcDbEntity
  8
レイヤー_1
 62
     7
100
AcDbVertex
100
AcDb2dVertex
 10
143.4538181729115
 20
101.3062434318711
 30
0.0
  0
VERTEX
  5
A9E
330
A87
100
AcDbEntity
  8
レイヤー_1
 62
     7
100
AcDbVertex
100
AcDb2dVertex
 10
143.2843191729114
 20
100.9886054318711
 30
0.0
  0
VERTEX
  5
A9F
330
A87
100
AcDbEntity
  8
レイヤー_1
 62
     7
100
AcDbVertex
100
AcDb2dVertex
 10
143.1785551729114
 20
100.6289374318711
 30
0.0
  0
VERTEX
  5
AA0
330
A87
100
AcDbEntity
  8
レイヤー_1
 62
     7
100
AcDbVertex
100
AcDb2dVertex
 10
143.1361801729114
 20
100.2692694318711
 30
0.0
  0
VERTEX
  5
AA1
330
A87
100
AcDbEntity
  8
レイヤー_1
 62
     7
100
AcDbVertex
100
AcDb2dVertex
 10
143.1785551729114
 20
99.88824243187114
 30
0.0
  0
VERTEX
  5
AA2
330
A87
100
AcDbEntity
  8
レイヤー_1
 62
     7
100
AcDbVertex
100
AcDb2dVertex
 10
143.2843191729114
 20
99.54924443187115
 30
0.0
  0
VERTEX
  5
AA3
330
A87
100
AcDbEntity
  8
レイヤー_1
 62
     7
100
AcDbVertex
100
AcDb2dVertex
 10
143.4538181729115
 20
99.21093643187113
 30
0.0
  0
VERTEX
  5
AA4
330
A87
100
AcDbEntity
  8
レイヤー_1
 62
     7
100
AcDbVertex
100
AcDb2dVertex
 10
143.6867071729114
 20
98.93532843187113
 30
0.0
  0
VERTEX
  5
AA5
330
A87
100
AcDbEntity
  8
レイヤー_1
 62
     7
100
AcDbVertex
100
AcDb2dVertex
 10
143.9616251729114
 20
98.70312943187112
 30
0.0
  0
VERTEX
  5
AA6
330
A87
100
AcDbEntity
  8
レイヤー_1
 62
     7
100
AcDbVertex
100
AcDb2dVertex
 10
144.3006231729114
 20
98.53363043187114
 30
0.0
  0
VERTEX
  5
AA7
330
A87
100
AcDbEntity
  8
レイヤー_1
 62
     7
100
AcDbVertex
100
AcDb2dVertex
 10
144.6392751729114
 20
98.42752143187114
 30
0.0
  0
VERTEX
  5
AA8
330
A87
100
AcDbEntity
  8
レイヤー_1
 62
     7
100
AcDbVertex
100
AcDb2dVertex
 10
145.0199581729114
 20
98.38549143187114
 30
0.0
  0
VERTEX
  5
AA9
330
A87
100
AcDbEntity
  8
レイヤー_1
 62
     7
100
AcDbVertex
100
AcDb2dVertex
 10
145.3799711729114
 20
98.42752143187114
 30
0.0
  0
VERTEX
  5
AAA
330
A87
100
AcDbEntity
  8
レイヤー_1
 62
     7
100
AcDbVertex
100
AcDb2dVertex
 10
145.7396391729114
 20
98.53363043187114
 30
0.0
  0
VERTEX
  5
AAB
330
A87
100
AcDbEntity
  8
レイヤー_1
 62
     7
100
AcDbVertex
100
AcDb2dVertex
 10
146.0572771729114
 20
98.70312943187112
 30
0.0
  0
VERTEX
  5
AAC
330
A87
100
AcDbEntity
  8
レイヤー_1
 62
     7
100
AcDbVertex
100
AcDb2dVertex
 10
146.3325401729114
 20
98.93532843187113
 30
0.0
  0
VERTEX
  5
AAD
330
A87
100
AcDbEntity
  8
レイヤー_1
 62
     7
100
AcDbVertex
100
AcDb2dVertex
 10
146.5654281729114
 20
99.21093643187113
 30
0.0
  0
VERTEX
  5
AAE
330
A87
100
AcDbEntity
  8
レイヤー_1
 62
     7
100
AcDbVertex
100
AcDb2dVertex
 10
146.7559421729114
 20
99.54924443187115
 30
0.0
  0
VERTEX
  5
AAF
330
A87
100
AcDbEntity
  8
レイヤー_1
 62
     7
100
AcDbVertex
100
AcDb2dVertex
 10
146.8617071729114
 20
99.88824243187114
 30
0.0
  0
VERTEX
  5
AB0
330
A87
100
AcDbEntity
  8
レイヤー_1
 62
     7
100
AcDbVertex
100
AcDb2dVertex
 10
146.8827221729114
 20
100.2692694318711
 30
0.0
  0
VERTEX
  5
AB1
330
A87
100
AcDbEntity
  8
レイヤー_1
 62
     7
100
AcDbVertex
100
AcDb2dVertex
 10
146.8617071729114
 20
100.6289374318711
 30
0.0
  0
VERTEX
  5
AB2
330
A87
100
AcDbEntity
  8
レイヤー_1
 62
     7
100
AcDbVertex
100
AcDb2dVertex
 10
146.7559421729114
 20
100.9886054318711
 30
0.0
  0
VERTEX
  5
AB3
330
A87
100
AcDbEntity
  8
レイヤー_1
 62
     7
100
AcDbVertex
100
AcDb2dVertex
 10
146.5654281729114
 20
101.3062434318711
 30
0.0
  0
VERTEX
  5
AB4
330
A87
100
AcDbEntity
  8
レイヤー_1
 62
     7
100
AcDbVertex
100
AcDb2dVertex
 10
146.3325401729114
 20
101.5811624318711
 30
0.0
  0
VERTEX
  5
AB5
330
A87
100
AcDbEntity
  8
レイヤー_1
 62
     7
100
AcDbVertex
100
AcDb2dVertex
 10
146.0572771729114
 20
101.8140504318711
 30
0.0
  0
VERTEX
  5
AB6
330
A87
100
AcDbEntity
  8
レイヤー_1
 62
     7
100
AcDbVertex
100
AcDb2dVertex
 10
145.7396391729114
 20
102.0049084318711
 30
0.0
  0
VERTEX
  5
AB7
330
A87
100
AcDbEntity
  8
レイヤー_1
 62
     7
100
AcDbVertex
100
AcDb2dVertex
 10
145.3799711729114
 20
102.1103284318711
 30
0.0
  0
VERTEX
  5
AB8
330
A87
100
AcDbEntity
  8
レイヤー_1
 62
     7
100
AcDbVertex
100
AcDb2dVertex
 10
145.0199581729114
 20
102.1316884318711
 30
0.0
  0
VERTEX
  5
AB9
330
A87
100
AcDbEntity
  8
レイヤー_1
 62
     7
100
AcDbVertex
100
AcDb2dVertex
 10
144.6392751729114
 20
102.1103284318711
 30
0.0
  0
VERTEX
  5
ABA
330
A87
100
AcDbEntity
  8
レイヤー_1
 62
     7
100
AcDbVertex
100
AcDb2dVertex
 10
144.3006231729114
 20
102.0049084318711
 30
0.0
  0
VERTEX
  5
ABB
330
A87
100
AcDbEntity
  8
レイヤー_1
 62
     7
100
AcDbVertex
100
AcDb2dVertex
 10
143.9616251729114
 20
101.8140504318711
 30
0.0
  0
VERTEX
  5
ABC
330
A87
100
AcDbEntity
  8
レイヤー_1
 62
     7
100
AcDbVertex
100
AcDb2dVertex
 10
143.6867071729114
 20
101.5811624318711
 30
0.0
  0
VERTEX
  5
ABD
330
A87
100
AcDbEntity
  8
レイヤー_1
 62
     7
100
AcDbVertex
100
AcDb2dVertex
 10
143.4538181729115
 20
101.3062434318711
 30
0.0
  0
VERTEX
  5
ABE
330
A87
100
AcDbEntity
  8
レイヤー_1
 62
     7
100
AcDbVertex
100
AcDb2dVertex
 10
143.2843191729114
 20
100.9886054318711
 30
0.0
  0
VERTEX
  5
ABF
330
A87
100
AcDbEntity
  8
レイヤー_1
 62
     7
100
AcDbVertex
100
AcDb2dVertex
 10
143.1785551729114
 20
100.6289374318711
 30
0.0
  0
VERTEX
  5
AC0
330
A87
100
AcDbEntity
  8
レイヤー_1
 62
     7
100
AcDbVertex
100
AcDb2dVertex
 10
143.1361801729114
 20
100.2692694318711
 30
0.0
  0
VERTEX
  5
AC1
330
A87
100
AcDbEntity
  8
レイヤー_1
 62
     7
100
AcDbVertex
100
AcDb2dVertex
 10
143.1785551729114
 20
99.88824243187114
 30
0.0
  0
VERTEX
  5
AC2
330
A87
100
AcDbEntity
  8
レイヤー_1
 62
     7
100
AcDbVertex
100
AcDb2dVertex
 10
143.2843191729114
 20
99.54924443187115
 30
0.0
  0
VERTEX
  5
AC3
330
A87
100
AcDbEntity
  8
レイヤー_1
 62
     7
100
AcDbVertex
100
AcDb2dVertex
 10
143.4538181729115
 20
99.21093643187113
 30
0.0
  0
VERTEX
  5
AC4
330
A87
100
AcDbEntity
  8
レイヤー_1
 62
     7
100
AcDbVertex
100
AcDb2dVertex
 10
143.6867071729114
 20
98.93532843187113
 30
0.0
  0
VERTEX
  5
AC5
330
A87
100
AcDbEntity
  8
レイヤー_1
 62
     7
100
AcDbVertex
100
AcDb2dVertex
 10
143.9616251729114
 20
98.70312943187112
 30
0.0
  0
VERTEX
  5
AC6
330
A87
100
AcDbEntity
  8
レイヤー_1
 62
     7
100
AcDbVertex
100
AcDb2dVertex
 10
144.3006231729114
 20
98.53363043187114
 30
0.0
  0
VERTEX
  5
AC7
330
A87
100
AcDbEntity
  8
レイヤー_1
 62
     7
100
AcDbVertex
100
AcDb2dVertex
 10
144.6392751729114
 20
98.42752143187114
 30
0.0
  0
SEQEND
  5
AC8
330
A87
100
AcDbEntity
  8
レイヤー_1
 62
     7
  0
POLYLINE
  5
AC9
330
75
100
AcDbEntity
  8
レイヤー_1
 62
     7
100
AcDb2dPolyline
 66
     1
 10
0.0
 20
0.0
 30
0.0
 70
     1
  0
VERTEX
  5
ACA
330
AC9
100
AcDbEntity
  8
レイヤー_1
 62
     7
100
AcDbVertex
100
AcDb2dVertex
 10
145.0199581729114
 20
95.76032843187112
 30
0.0
  0
VERTEX
  5
ACB
330
AC9
100
AcDbEntity
  8
レイヤー_1
 62
     7
100
AcDbVertex
100
AcDb2dVertex
 10
145.5915001729114
 20
95.80304743187113
 30
0.0
  0
VERTEX
  5
ACC
330
AC9
100
AcDbEntity
  8
レイヤー_1
 62
     7
100
AcDbVertex
100
AcDb2dVertex
 10
146.1844011729114
 20
95.92982743187114
 30
0.0
  0
VERTEX
  5
ACD
330
AC9
100
AcDbEntity
  8
レイヤー_1
 62
     7
100
AcDbVertex
100
AcDb2dVertex
 10
146.7345821729114
 20
96.12068543187113
 30
0.0
  0
VERTEX
  5
ACE
330
AC9
100
AcDbEntity
  8
レイヤー_1
 62
     7
100
AcDbVertex
100
AcDb2dVertex
 10
147.2637491729114
 20
96.37424443187114
 30
0.0
  0
VERTEX
  5
ACF
330
AC9
100
AcDbEntity
  8
レイヤー_1
 62
     7
100
AcDbVertex
100
AcDb2dVertex
 10
147.7505411729114
 20
96.69188243187113
 30
0.0
  0
VERTEX
  5
AD0
330
AC9
100
AcDbEntity
  8
レイヤー_1
 62
     7
100
AcDbVertex
100
AcDb2dVertex
 10
148.1949581729114
 20
97.09426943187114
 30
0.0
  0
VERTEX
  5
AD1
330
AC9
100
AcDbEntity
  8
レイヤー_1
 62
     7
100
AcDbVertex
100
AcDb2dVertex
 10
148.5759861729114
 20
97.51732743187115
 30
0.0
  0
VERTEX
  5
AD2
330
AC9
100
AcDbEntity
  8
レイヤー_1
 62
     7
100
AcDbVertex
100
AcDb2dVertex
 10
148.8936241729114
 20
98.02513443187113
 30
0.0
  0
VERTEX
  5
AD3
330
AC9
100
AcDbEntity
  8
レイヤー_1
 62
     7
100
AcDbVertex
100
AcDb2dVertex
 10
149.1688871729115
 20
98.53363043187114
 30
0.0
  0
VERTEX
  5
AD4
330
AC9
100
AcDbEntity
  8
レイヤー_1
 62
     7
100
AcDbVertex
100
AcDb2dVertex
 10
149.3594011729114
 20
99.10482743187115
 30
0.0
  0
VERTEX
  5
AD5
330
AC9
100
AcDbEntity
  8
レイヤー_1
 62
     7
100
AcDbVertex
100
AcDb2dVertex
 10
149.4651651729114
 20
99.67671343187113
 30
0.0
  0
VERTEX
  5
AD6
330
AC9
100
AcDbEntity
  8
レイヤー_1
 62
     7
100
AcDbVertex
100
AcDb2dVertex
 10
149.5075401729114
 20
100.2692694318711
 30
0.0
  0
VERTEX
  5
AD7
330
AC9
100
AcDbEntity
  8
レイヤー_1
 62
     7
100
AcDbVertex
100
AcDb2dVertex
 10
149.4651651729114
 20
100.8404664318711
 30
0.0
  0
VERTEX
  5
AD8
330
AC9
100
AcDbEntity
  8
レイヤー_1
 62
     7
100
AcDbVertex
100
AcDb2dVertex
 10
149.3594011729114
 20
101.4330234318711
 30
0.0
  0
VERTEX
  5
AD9
330
AC9
100
AcDbEntity
  8
レイヤー_1
 62
     7
100
AcDbVertex
100
AcDb2dVertex
 10
149.1688871729115
 20
101.9835494318711
 30
0.0
  0
VERTEX
  5
ADA
330
AC9
100
AcDbEntity
  8
レイヤー_1
 62
     7
100
AcDbVertex
100
AcDb2dVertex
 10
148.8936241729114
 20
102.5127154318711
 30
0.0
  0
VERTEX
  5
ADB
330
AC9
100
AcDbEntity
  8
レイヤー_1
 62
     7
100
AcDbVertex
100
AcDb2dVertex
 10
148.5759861729114
 20
102.9998524318711
 30
0.0
  0
VERTEX
  5
ADC
330
AC9
100
AcDbEntity
  8
レイヤー_1
 62
     7
100
AcDbVertex
100
AcDb2dVertex
 10
148.1949581729114
 20
103.4442694318711
 30
0.0
  0
VERTEX
  5
ADD
330
AC9
100
AcDbEntity
  8
レイヤー_1
 62
     7
100
AcDbVertex
100
AcDb2dVertex
 10
147.7505411729114
 20
103.8252974318711
 30
0.0
  0
VERTEX
  5
ADE
330
AC9
100
AcDbEntity
  8
レイヤー_1
 62
     7
100
AcDbVertex
100
AcDb2dVertex
 10
147.2637491729114
 20
104.1636054318711
 30
0.0
  0
VERTEX
  5
ADF
330
AC9
100
AcDbEntity
  8
レイヤー_1
 62
     7
100
AcDbVertex
100
AcDb2dVertex
 10
146.7345821729114
 20
104.4178534318711
 30
0.0
  0
VERTEX
  5
AE0
330
AC9
100
AcDbEntity
  8
レイヤー_1
 62
     7
100
AcDbVertex
100
AcDb2dVertex
 10
146.1844011729114
 20
104.6080234318711
 30
0.0
  0
VERTEX
  5
AE1
330
AC9
100
AcDbEntity
  8
レイヤー_1
 62
     7
100
AcDbVertex
100
AcDb2dVertex
 10
145.5915001729114
 20
104.7141314318711
 30
0.0
  0
VERTEX
  5
AE2
330
AC9
100
AcDbEntity
  8
レイヤー_1
 62
     7
100
AcDbVertex
100
AcDb2dVertex
 10
145.0199581729114
 20
104.7561624318711
 30
0.0
  0
VERTEX
  5
AE3
330
AC9
100
AcDbEntity
  8
レイヤー_1
 62
     7
100
AcDbVertex
100
AcDb2dVertex
 10
144.4274021729114
 20
104.7141314318711
 30
0.0
  0
VERTEX
  5
AE4
330
AC9
100
AcDbEntity
  8
レイヤー_1
 62
     7
100
AcDbVertex
100
AcDb2dVertex
 10
143.8558611729114
 20
104.6080234318711
 30
0.0
  0
VERTEX
  5
AE5
330
AC9
100
AcDbEntity
  8
レイヤー_1
 62
     7
100
AcDbVertex
100
AcDb2dVertex
 10
143.2843191729114
 20
104.4178534318711
 30
0.0
  0
VERTEX
  5
AE6
330
AC9
100
AcDbEntity
  8
レイヤー_1
 62
     7
100
AcDbVertex
100
AcDb2dVertex
 10
142.7765121729114
 20
104.1636054318711
 30
0.0
  0
VERTEX
  5
AE7
330
AC9
100
AcDbEntity
  8
レイヤー_1
 62
     7
100
AcDbVertex
100
AcDb2dVertex
 10
142.2683611729114
 20
103.8252974318711
 30
0.0
  0
VERTEX
  5
AE8
330
AC9
100
AcDbEntity
  8
レイヤー_1
 62
     7
100
AcDbVertex
100
AcDb2dVertex
 10
141.8449581729114
 20
103.4442694318711
 30
0.0
  0
VERTEX
  5
AE9
330
AC9
100
AcDbEntity
  8
レイヤー_1
 62
     7
100
AcDbVertex
100
AcDb2dVertex
 10
141.4429161729114
 20
102.9998524318711
 30
0.0
  0
VERTEX
  5
AEA
330
AC9
100
AcDbEntity
  8
レイヤー_1
 62
     7
100
AcDbVertex
100
AcDb2dVertex
 10
141.1256231729115
 20
102.5127154318711
 30
0.0
  0
VERTEX
  5
AEB
330
AC9
100
AcDbEntity
  8
レイヤー_1
 62
     7
100
AcDbVertex
100
AcDb2dVertex
 10
140.8713741729114
 20
101.9835494318711
 30
0.0
  0
VERTEX
  5
AEC
330
AC9
100
AcDbEntity
  8
レイヤー_1
 62
     7
100
AcDbVertex
100
AcDb2dVertex
 10
140.6808611729114
 20
101.4330234318711
 30
0.0
  0
VERTEX
  5
AED
330
AC9
100
AcDbEntity
  8
レイヤー_1
 62
     7
100
AcDbVertex
100
AcDb2dVertex
 10
140.5540811729114
 20
100.8404664318711
 30
0.0
  0
VERTEX
  5
AEE
330
AC9
100
AcDbEntity
  8
レイヤー_1
 62
     7
100
AcDbVertex
100
AcDb2dVertex
 10
140.5117071729114
 20
100.2692694318711
 30
0.0
  0
VERTEX
  5
AEF
330
AC9
100
AcDbEntity
  8
レイヤー_1
 62
     7
100
AcDbVertex
100
AcDb2dVertex
 10
140.5540811729114
 20
99.67671343187113
 30
0.0
  0
VERTEX
  5
AF0
330
AC9
100
AcDbEntity
  8
レイヤー_1
 62
     7
100
AcDbVertex
100
AcDb2dVertex
 10
140.6808611729114
 20
99.10482743187115
 30
0.0
  0
VERTEX
  5
AF1
330
AC9
100
AcDbEntity
  8
レイヤー_1
 62
     7
100
AcDbVertex
100
AcDb2dVertex
 10
140.8713741729114
 20
98.53363043187114
 30
0.0
  0
VERTEX
  5
AF2
330
AC9
100
AcDbEntity
  8
レイヤー_1
 62
     7
100
AcDbVertex
100
AcDb2dVertex
 10
141.1256231729115
 20
98.02513443187113
 30
0.0
  0
VERTEX
  5
AF3
330
AC9
100
AcDbEntity
  8
レイヤー_1
 62
     7
100
AcDbVertex
100
AcDb2dVertex
 10
141.4429161729114
 20
97.51732743187115
 30
0.0
  0
VERTEX
  5
AF4
330
AC9
100
AcDbEntity
  8
レイヤー_1
 62
     7
100
AcDbVertex
100
AcDb2dVertex
 10
141.8449581729114
 20
97.09426943187114
 30
0.0
  0
VERTEX
  5
AF5
330
AC9
100
AcDbEntity
  8
レイヤー_1
 62
     7
100
AcDbVertex
100
AcDb2dVertex
 10
142.2683611729114
 20
96.69188243187113
 30
0.0
  0
VERTEX
  5
AF6
330
AC9
100
AcDbEntity
  8
レイヤー_1
 62
     7
100
AcDbVertex
100
AcDb2dVertex
 10
142.7765121729114
 20
96.37424443187114
 30
0.0
  0
VERTEX
  5
AF7
330
AC9
100
AcDbEntity
  8
レイヤー_1
 62
     7
100
AcDbVertex
100
AcDb2dVertex
 10
143.2843191729114
 20
96.12068543187113
 30
0.0
  0
VERTEX
  5
AF8
330
AC9
100
AcDbEntity
  8
レイヤー_1
 62
     7
100
AcDbVertex
100
AcDb2dVertex
 10
143.8558611729114
 20
95.92982743187114
 30
0.0
  0
VERTEX
  5
AF9
330
AC9
100
AcDbEntity
  8
レイヤー_1
 62
     7
100
AcDbVertex
100
AcDb2dVertex
 10
144.4274021729114
 20
95.80304743187113
 30
0.0
  0
SEQEND
  5
AFA
330
AC9
100
AcDbEntity
  8
レイヤー_1
 62
     7
  0
POLYLINE
  5
AFB
330
75
100
AcDbEntity
  8
レイヤー_1
 62
     7
100
AcDb2dPolyline
 66
     1
 10
0.0
 20
0.0
 30
0.0
 70
     1
  0
VERTEX
  5
AFC
330
AFB
100
AcDbEntity
  8
レイヤー_1
 62
     7
100
AcDbVertex
100
AcDb2dVertex
 10
145.0199581729114
 20
96.26882443187113
 30
0.0
  0
VERTEX
  5
AFD
330
AFB
100
AcDbEntity
  8
レイヤー_1
 62
     7
100
AcDbVertex
100
AcDb2dVertex
 10
145.5915001729114
 20
96.31085543187111
 30
0.0
  0
VERTEX
  5
AFE
330
AFB
100
AcDbEntity
  8
レイヤー_1
 62
     7
100
AcDbVertex
100
AcDb2dVertex
 10
146.1420261729114
 20
96.43763443187113
 30
0.0
  0
VERTEX
  5
AFF
330
AFB
100
AcDbEntity
  8
レイヤー_1
 62
     7
100
AcDbVertex
100
AcDb2dVertex
 10
146.6711931729115
 20
96.62849243187114
 30
0.0
  0
VERTEX
  5
B00
330
AFB
100
AcDbEntity
  8
レイヤー_1
 62
     7
100
AcDbVertex
100
AcDb2dVertex
 10
147.1790001729114
 20
96.90341143187113
 30
0.0
  0
VERTEX
  5
B01
330
AFB
100
AcDbEntity
  8
レイヤー_1
 62
     7
100
AcDbVertex
100
AcDb2dVertex
 10
147.6237621729114
 20
97.24240843187113
 30
0.0
  0
VERTEX
  5
B02
330
AFB
100
AcDbEntity
  8
レイヤー_1
 62
     7
100
AcDbVertex
100
AcDb2dVertex
 10
148.0258041729114
 20
97.64479643187115
 30
0.0
  0
VERTEX
  5
B03
330
AFB
100
AcDbEntity
  8
レイヤー_1
 62
     7
100
AcDbVertex
100
AcDb2dVertex
 10
148.3644571729114
 20
98.10988343187112
 30
0.0
  0
VERTEX
  5
B04
330
AFB
100
AcDbEntity
  8
レイヤー_1
 62
     7
100
AcDbVertex
100
AcDb2dVertex
 10
148.6397201729114
 20
98.59702043187114
 30
0.0
  0
VERTEX
  5
B05
330
AFB
100
AcDbEntity
  8
レイヤー_1
 62
     7
100
AcDbVertex
100
AcDb2dVertex
 10
148.8512491729114
 20
99.14754643187114
 30
0.0
  0
VERTEX
  5
B06
330
AFB
100
AcDbEntity
  8
レイヤー_1
 62
     7
100
AcDbVertex
100
AcDb2dVertex
 10
148.9570141729114
 20
99.69738343187113
 30
0.0
  0
VERTEX
  5
B07
330
AFB
100
AcDbEntity
  8
レイヤー_1
 62
     7
100
AcDbVertex
100
AcDb2dVertex
 10
148.9993881729114
 20
100.2692694318711
 30
0.0
  0
VERTEX
  5
B08
330
AFB
100
AcDbEntity
  8
レイヤー_1
 62
     7
100
AcDbVertex
100
AcDb2dVertex
 10
148.9570141729114
 20
100.8404664318711
 30
0.0
  0
VERTEX
  5
B09
330
AFB
100
AcDbEntity
  8
レイヤー_1
 62
     7
100
AcDbVertex
100
AcDb2dVertex
 10
148.8512491729114
 20
101.3909924318711
 30
0.0
  0
VERTEX
  5
B0A
330
AFB
100
AcDbEntity
  8
レイヤー_1
 62
     7
100
AcDbVertex
100
AcDb2dVertex
 10
148.6397201729114
 20
101.9201594318711
 30
0.0
  0
VERTEX
  5
B0B
330
AFB
100
AcDbEntity
  8
レイヤー_1
 62
     7
100
AcDbVertex
100
AcDb2dVertex
 10
148.3644571729114
 20
102.4279664318711
 30
0.0
  0
VERTEX
  5
B0C
330
AFB
100
AcDbEntity
  8
レイヤー_1
 62
     7
100
AcDbVertex
100
AcDb2dVertex
 10
148.0258041729114
 20
102.8723834318711
 30
0.0
  0
VERTEX
  5
B0D
330
AFB
100
AcDbEntity
  8
レイヤー_1
 62
     7
100
AcDbVertex
100
AcDb2dVertex
 10
147.6237621729114
 20
103.2747714318711
 30
0.0
  0
VERTEX
  5
B0E
330
AFB
100
AcDbEntity
  8
レイヤー_1
 62
     7
100
AcDbVertex
100
AcDb2dVertex
 10
147.1790001729114
 20
103.6137684318711
 30
0.0
  0
VERTEX
  5
B0F
330
AFB
100
AcDbEntity
  8
レイヤー_1
 62
     7
100
AcDbVertex
100
AcDb2dVertex
 10
146.6711931729115
 20
103.8886874318711
 30
0.0
  0
VERTEX
  5
B10
330
AFB
100
AcDbEntity
  8
レイヤー_1
 62
     7
100
AcDbVertex
100
AcDb2dVertex
 10
146.1420261729114
 20
104.1002154318711
 30
0.0
  0
VERTEX
  5
B11
330
AFB
100
AcDbEntity
  8
レイヤー_1
 62
     7
100
AcDbVertex
100
AcDb2dVertex
 10
145.5915001729114
 20
104.2063244318711
 30
0.0
  0
VERTEX
  5
B12
330
AFB
100
AcDbEntity
  8
レイヤー_1
 62
     7
100
AcDbVertex
100
AcDb2dVertex
 10
145.0199581729114
 20
104.2483554318711
 30
0.0
  0
VERTEX
  5
B13
330
AFB
100
AcDbEntity
  8
レイヤー_1
 62
     7
100
AcDbVertex
100
AcDb2dVertex
 10
144.4487621729114
 20
104.2063244318711
 30
0.0
  0
VERTEX
  5
B14
330
AFB
100
AcDbEntity
  8
レイヤー_1
 62
     7
100
AcDbVertex
100
AcDb2dVertex
 10
143.8982351729114
 20
104.1002154318711
 30
0.0
  0
VERTEX
  5
B15
330
AFB
100
AcDbEntity
  8
レイヤー_1
 62
     7
100
AcDbVertex
100
AcDb2dVertex
 10
143.3480541729114
 20
103.8886874318711
 30
0.0
  0
VERTEX
  5
B16
330
AFB
100
AcDbEntity
  8
レイヤー_1
 62
     7
100
AcDbVertex
100
AcDb2dVertex
 10
142.8612621729114
 20
103.6137684318711
 30
0.0
  0
VERTEX
  5
B17
330
AFB
100
AcDbEntity
  8
レイヤー_1
 62
     7
100
AcDbVertex
100
AcDb2dVertex
 10
142.3954851729114
 20
103.2747714318711
 30
0.0
  0
VERTEX
  5
B18
330
AFB
100
AcDbEntity
  8
レイヤー_1
 62
     7
100
AcDbVertex
100
AcDb2dVertex
 10
141.9934421729115
 20
102.8723834318711
 30
0.0
  0
VERTEX
  5
B19
330
AFB
100
AcDbEntity
  8
レイヤー_1
 62
     7
100
AcDbVertex
100
AcDb2dVertex
 10
141.6547891729114
 20
102.4279664318711
 30
0.0
  0
VERTEX
  5
B1A
330
AFB
100
AcDbEntity
  8
レイヤー_1
 62
     7
100
AcDbVertex
100
AcDb2dVertex
 10
141.3795261729114
 20
101.9201594318711
 30
0.0
  0
VERTEX
  5
B1B
330
AFB
100
AcDbEntity
  8
レイヤー_1
 62
     7
100
AcDbVertex
100
AcDb2dVertex
 10
141.1890121729114
 20
101.3909924318711
 30
0.0
  0
VERTEX
  5
B1C
330
AFB
100
AcDbEntity
  8
レイヤー_1
 62
     7
100
AcDbVertex
100
AcDb2dVertex
 10
141.0618881729114
 20
100.8404664318711
 30
0.0
  0
VERTEX
  5
B1D
330
AFB
100
AcDbEntity
  8
レイヤー_1
 62
     7
100
AcDbVertex
100
AcDb2dVertex
 10
141.0195141729114
 20
100.2692694318711
 30
0.0
  0
VERTEX
  5
B1E
330
AFB
100
AcDbEntity
  8
レイヤー_1
 62
     7
100
AcDbVertex
100
AcDb2dVertex
 10
141.0618881729114
 20
99.69738343187113
 30
0.0
  0
VERTEX
  5
B1F
330
AFB
100
AcDbEntity
  8
レイヤー_1
 62
     7
100
AcDbVertex
100
AcDb2dVertex
 10
141.1890121729114
 20
99.14754643187114
 30
0.0
  0
VERTEX
  5
B20
330
AFB
100
AcDbEntity
  8
レイヤー_1
 62
     7
100
AcDbVertex
100
AcDb2dVertex
 10
141.3795261729114
 20
98.59702043187114
 30
0.0
  0
VERTEX
  5
B21
330
AFB
100
AcDbEntity
  8
レイヤー_1
 62
     7
100
AcDbVertex
100
AcDb2dVertex
 10
141.6547891729114
 20
98.10988343187112
 30
0.0
  0
VERTEX
  5
B22
330
AFB
100
AcDbEntity
  8
レイヤー_1
 62
     7
100
AcDbVertex
100
AcDb2dVertex
 10
141.9934421729115
 20
97.64479643187115
 30
0.0
  0
VERTEX
  5
B23
330
AFB
100
AcDbEntity
  8
レイヤー_1
 62
     7
100
AcDbVertex
100
AcDb2dVertex
 10
142.3954851729114
 20
97.24240843187113
 30
0.0
  0
VERTEX
  5
B24
330
AFB
100
AcDbEntity
  8
レイヤー_1
 62
     7
100
AcDbVertex
100
AcDb2dVertex
 10
142.8612621729114
 20
96.90341143187113
 30
0.0
  0
VERTEX
  5
B25
330
AFB
100
AcDbEntity
  8
レイヤー_1
 62
     7
100
AcDbVertex
100
AcDb2dVertex
 10
143.3480541729114
 20
96.62849243187114
 30
0.0
  0
VERTEX
  5
B26
330
AFB
100
AcDbEntity
  8
レイヤー_1
 62
     7
100
AcDbVertex
100
AcDb2dVertex
 10
143.8982351729114
 20
96.43763443187113
 30
0.0
  0
VERTEX
  5
B27
330
AFB
100
AcDbEntity
  8
レイヤー_1
 62
     7
100
AcDbVertex
100
AcDb2dVertex
 10
144.4487621729114
 20
96.31085543187111
 30
0.0
  0
SEQEND
  5
B28
330
AFB
100
AcDbEntity
  8
レイヤー_1
 62
     7
  0
POLYLINE
  5
B29
330
75
100
AcDbEntity
  8
レイヤー_1
 62
     7
100
AcDb2dPolyline
 66
     1
 10
0.0
 20
0.0
 30
0.0
 70
     1
  0
VERTEX
  5
B2A
330
B29
100
AcDbEntity
  8
レイヤー_1
 62
     7
100
AcDbVertex
100
AcDb2dVertex
 10
145.0199581729114
 20
94.00401943187114
 30
0.0
  0
VERTEX
  5
B2B
330
B29
100
AcDbEntity
  8
レイヤー_1
 62
     7
100
AcDbVertex
100
AcDb2dVertex
 10
145.7186241729114
 20
94.04604943187115
 30
0.0
  0
VERTEX
  5
B2C
330
B29
100
AcDbEntity
  8
レイヤー_1
 62
     7
100
AcDbVertex
100
AcDb2dVertex
 10
146.3959301729114
 20
94.17282843187113
 30
0.0
  0
VERTEX
  5
B2D
330
B29
100
AcDbEntity
  8
レイヤー_1
 62
     7
100
AcDbVertex
100
AcDb2dVertex
 10
147.0732351729114
 20
94.36368743187113
 30
0.0
  0
VERTEX
  5
B2E
330
B29
100
AcDbEntity
  8
レイヤー_1
 62
     7
100
AcDbVertex
100
AcDb2dVertex
 10
147.7295261729114
 20
94.63860543187113
 30
0.0
  0
VERTEX
  5
B2F
330
B29
100
AcDbEntity
  8
レイヤー_1
 62
     7
100
AcDbVertex
100
AcDb2dVertex
 10
148.3434421729114
 20
94.97760343187112
 30
0.0
  0
VERTEX
  5
B30
330
B29
100
AcDbEntity
  8
レイヤー_1
 62
     7
100
AcDbVertex
100
AcDb2dVertex
 10
148.9146391729114
 20
95.37930143187114
 30
0.0
  0
VERTEX
  5
B31
330
B29
100
AcDbEntity
  8
レイヤー_1
 62
     7
100
AcDbVertex
100
AcDb2dVertex
 10
149.4227901729114
 20
95.84507843187113
 30
0.0
  0
VERTEX
  5
B32
330
B29
100
AcDbEntity
  8
レイヤー_1
 62
     7
100
AcDbVertex
100
AcDb2dVertex
 10
149.8885671729114
 20
96.37424443187114
 30
0.0
  0
VERTEX
  5
B33
330
B29
100
AcDbEntity
  8
レイヤー_1
 62
     7
100
AcDbVertex
100
AcDb2dVertex
 10
150.3116251729114
 20
96.94613043187112
 30
0.0
  0
VERTEX
  5
B34
330
B29
100
AcDbEntity
  8
レイヤー_1
 62
     7
100
AcDbVertex
100
AcDb2dVertex
 10
150.6506231729115
 20
97.56004643187115
 30
0.0
  0
VERTEX
  5
B35
330
B29
100
AcDbEntity
  8
レイヤー_1
 62
     7
100
AcDbVertex
100
AcDb2dVertex
 10
150.9045261729114
 20
98.19463343187113
 30
0.0
  0
VERTEX
  5
B36
330
B29
100
AcDbEntity
  8
レイヤー_1
 62
     7
100
AcDbVertex
100
AcDb2dVertex
 10
151.0950401729114
 20
98.87193943187114
 30
0.0
  0
VERTEX
  5
B37
330
B29
100
AcDbEntity
  8
レイヤー_1
 62
     7
100
AcDbVertex
100
AcDb2dVertex
 10
151.2218191729114
 20
99.57060443187112
 30
0.0
  0
VERTEX
  5
B38
330
B29
100
AcDbEntity
  8
レイヤー_1
 62
     7
100
AcDbVertex
100
AcDb2dVertex
 10
151.2641941729114
 20
100.2692694318711
 30
0.0
  0
VERTEX
  5
B39
330
B29
100
AcDbEntity
  8
レイヤー_1
 62
     7
100
AcDbVertex
100
AcDb2dVertex
 10
151.2218191729114
 20
100.9679354318711
 30
0.0
  0
VERTEX
  5
B3A
330
B29
100
AcDbEntity
  8
レイヤー_1
 62
     7
100
AcDbVertex
100
AcDb2dVertex
 10
151.0950401729114
 20
101.6452404318711
 30
0.0
  0
VERTEX
  5
B3B
330
B29
100
AcDbEntity
  8
レイヤー_1
 62
     7
100
AcDbVertex
100
AcDb2dVertex
 10
150.9045261729114
 20
102.3225464318711
 30
0.0
  0
VERTEX
  5
B3C
330
B29
100
AcDbEntity
  8
レイヤー_1
 62
     7
100
AcDbVertex
100
AcDb2dVertex
 10
150.6506231729115
 20
102.9784924318711
 30
0.0
  0
VERTEX
  5
B3D
330
B29
100
AcDbEntity
  8
レイヤー_1
 62
     7
100
AcDbVertex
100
AcDb2dVertex
 10
150.3116251729114
 20
103.5924084318711
 30
0.0
  0
VERTEX
  5
B3E
330
B29
100
AcDbEntity
  8
レイヤー_1
 62
     7
100
AcDbVertex
100
AcDb2dVertex
 10
149.8885671729114
 20
104.1636054318711
 30
0.0
  0
VERTEX
  5
B3F
330
B29
100
AcDbEntity
  8
レイヤー_1
 62
     7
100
AcDbVertex
100
AcDb2dVertex
 10
149.4227901729114
 20
104.6721014318711
 30
0.0
  0
VERTEX
  5
B40
330
B29
100
AcDbEntity
  8
レイヤー_1
 62
     7
100
AcDbVertex
100
AcDb2dVertex
 10
148.9146391729114
 20
105.1585494318711
 30
0.0
  0
VERTEX
  5
B41
330
B29
100
AcDbEntity
  8
レイヤー_1
 62
     7
100
AcDbVertex
100
AcDb2dVertex
 10
148.3434421729114
 20
105.5609364318711
 30
0.0
  0
VERTEX
  5
B42
330
B29
100
AcDbEntity
  8
レイヤー_1
 62
     7
100
AcDbVertex
100
AcDb2dVertex
 10
147.7295261729114
 20
105.8992444318711
 30
0.0
  0
VERTEX
  5
B43
330
B29
100
AcDbEntity
  8
レイヤー_1
 62
     7
100
AcDbVertex
100
AcDb2dVertex
 10
147.0732351729114
 20
106.1534924318711
 30
0.0
  0
VERTEX
  5
B44
330
B29
100
AcDbEntity
  8
レイヤー_1
 62
     7
100
AcDbVertex
100
AcDb2dVertex
 10
146.3959301729114
 20
106.3650214318711
 30
0.0
  0
VERTEX
  5
B45
330
B29
100
AcDbEntity
  8
レイヤー_1
 62
     7
100
AcDbVertex
100
AcDb2dVertex
 10
145.7186241729114
 20
106.4711304318711
 30
0.0
  0
VERTEX
  5
B46
330
B29
100
AcDbEntity
  8
レイヤー_1
 62
     7
100
AcDbVertex
100
AcDb2dVertex
 10
145.0199581729114
 20
106.5131604318711
 30
0.0
  0
VERTEX
  5
B47
330
B29
100
AcDbEntity
  8
レイヤー_1
 62
     7
100
AcDbVertex
100
AcDb2dVertex
 10
144.3216381729114
 20
106.4711304318711
 30
0.0
  0
VERTEX
  5
B48
330
B29
100
AcDbEntity
  8
レイヤー_1
 62
     7
100
AcDbVertex
100
AcDb2dVertex
 10
143.6229721729114
 20
106.3650214318711
 30
0.0
  0
VERTEX
  5
B49
330
B29
100
AcDbEntity
  8
レイヤー_1
 62
     7
100
AcDbVertex
100
AcDb2dVertex
 10
142.9456661729114
 20
106.1534924318711
 30
0.0
  0
VERTEX
  5
B4A
330
B29
100
AcDbEntity
  8
レイヤー_1
 62
     7
100
AcDbVertex
100
AcDb2dVertex
 10
142.3107351729114
 20
105.8992444318711
 30
0.0
  0
VERTEX
  5
B4B
330
B29
100
AcDbEntity
  8
レイヤー_1
 62
     7
100
AcDbVertex
100
AcDb2dVertex
 10
141.6968191729114
 20
105.5609364318711
 30
0.0
  0
VERTEX
  5
B4C
330
B29
100
AcDbEntity
  8
レイヤー_1
 62
     7
100
AcDbVertex
100
AcDb2dVertex
 10
141.1256231729115
 20
105.1585494318711
 30
0.0
  0
VERTEX
  5
B4D
330
B29
100
AcDbEntity
  8
レイヤー_1
 62
     7
100
AcDbVertex
100
AcDb2dVertex
 10
140.5964561729114
 20
104.6721014318711
 30
0.0
  0
VERTEX
  5
B4E
330
B29
100
AcDbEntity
  8
レイヤー_1
 62
     7
100
AcDbVertex
100
AcDb2dVertex
 10
140.1306791729114
 20
104.1636054318711
 30
0.0
  0
VERTEX
  5
B4F
330
B29
100
AcDbEntity
  8
レイヤー_1
 62
     7
100
AcDbVertex
100
AcDb2dVertex
 10
139.7282921729114
 20
103.5924084318711
 30
0.0
  0
VERTEX
  5
B50
330
B29
100
AcDbEntity
  8
レイヤー_1
 62
     7
100
AcDbVertex
100
AcDb2dVertex
 10
139.3896391729114
 20
102.9784924318711
 30
0.0
  0
VERTEX
  5
B51
330
B29
100
AcDbEntity
  8
レイヤー_1
 62
     7
100
AcDbVertex
100
AcDb2dVertex
 10
139.1147201729114
 20
102.3225464318711
 30
0.0
  0
VERTEX
  5
B52
330
B29
100
AcDbEntity
  8
レイヤー_1
 62
     7
100
AcDbVertex
100
AcDb2dVertex
 10
138.9242071729114
 20
101.6452404318711
 30
0.0
  0
VERTEX
  5
B53
330
B29
100
AcDbEntity
  8
レイヤー_1
 62
     7
100
AcDbVertex
100
AcDb2dVertex
 10
138.7970821729114
 20
100.9679354318711
 30
0.0
  0
VERTEX
  5
B54
330
B29
100
AcDbEntity
  8
レイヤー_1
 62
     7
100
AcDbVertex
100
AcDb2dVertex
 10
138.7547081729114
 20
100.2692694318711
 30
0.0
  0
VERTEX
  5
B55
330
B29
100
AcDbEntity
  8
レイヤー_1
 62
     7
100
AcDbVertex
100
AcDb2dVertex
 10
138.7970821729114
 20
99.57060443187112
 30
0.0
  0
VERTEX
  5
B56
330
B29
100
AcDbEntity
  8
レイヤー_1
 62
     7
100
AcDbVertex
100
AcDb2dVertex
 10
138.9242071729114
 20
98.87193943187114
 30
0.0
  0
VERTEX
  5
B57
330
B29
100
AcDbEntity
  8
レイヤー_1
 62
     7
100
AcDbVertex
100
AcDb2dVertex
 10
139.1147201729114
 20
98.19463343187113
 30
0.0
  0
VERTEX
  5
B58
330
B29
100
AcDbEntity
  8
レイヤー_1
 62
     7
100
AcDbVertex
100
AcDb2dVertex
 10
139.3896391729114
 20
97.56004643187115
 30
0.0
  0
VERTEX
  5
B59
330
B29
100
AcDbEntity
  8
レイヤー_1
 62
     7
100
AcDbVertex
100
AcDb2dVertex
 10
139.7282921729114
 20
96.94613043187112
 30
0.0
  0
VERTEX
  5
B5A
330
B29
100
AcDbEntity
  8
レイヤー_1
 62
     7
100
AcDbVertex
100
AcDb2dVertex
 10
140.1306791729114
 20
96.37424443187114
 30
0.0
  0
VERTEX
  5
B5B
330
B29
100
AcDbEntity
  8
レイヤー_1
 62
     7
100
AcDbVertex
100
AcDb2dVertex
 10
140.5964561729114
 20
95.84507843187113
 30
0.0
  0
VERTEX
  5
B5C
330
B29
100
AcDbEntity
  8
レイヤー_1
 62
     7
100
AcDbVertex
100
AcDb2dVertex
 10
141.1256231729115
 20
95.37930143187114
 30
0.0
  0
VERTEX
  5
B5D
330
B29
100
AcDbEntity
  8
レイヤー_1
 62
     7
100
AcDbVertex
100
AcDb2dVertex
 10
141.6968191729114
 20
94.97760343187112
 30
0.0
  0
VERTEX
  5
B5E
330
B29
100
AcDbEntity
  8
レイヤー_1
 62
     7
100
AcDbVertex
100
AcDb2dVertex
 10
142.3107351729114
 20
94.63860543187113
 30
0.0
  0
VERTEX
  5
B5F
330
B29
100
AcDbEntity
  8
レイヤー_1
 62
     7
100
AcDbVertex
100
AcDb2dVertex
 10
142.9456661729114
 20
94.36368743187113
 30
0.0
  0
VERTEX
  5
B60
330
B29
100
AcDbEntity
  8
レイヤー_1
 62
     7
100
AcDbVertex
100
AcDb2dVertex
 10
143.6229721729114
 20
94.17282843187113
 30
0.0
  0
VERTEX
  5
B61
330
B29
100
AcDbEntity
  8
レイヤー_1
 62
     7
100
AcDbVertex
100
AcDb2dVertex
 10
144.3216381729114
 20
94.04604943187115
 30
0.0
  0
SEQEND
  5
B62
330
B29
100
AcDbEntity
  8
レイヤー_1
 62
     7
  0
POLYLINE
  5
B63
330
75
100
AcDbEntity
  8
レイヤー_1
 62
     7
100
AcDb2dPolyline
 66
     1
 10
0.0
 20
0.0
 30
0.0
 70
     1
  0
VERTEX
  5
B64
330
B63
100
AcDbEntity
  8
レイヤー_1
 62
     7
100
AcDbVertex
100
AcDb2dVertex
 10
115.0059421729114
 20
97.41190743187113
 30
0.0
  0
VERTEX
  5
B65
330
B63
100
AcDbEntity
  8
レイヤー_1
 62
     7
100
AcDbVertex
100
AcDb2dVertex
 10
115.5137491729114
 20
97.45393743187113
 30
0.0
  0
VERTEX
  5
B66
330
B63
100
AcDbEntity
  8
レイヤー_1
 62
     7
100
AcDbVertex
100
AcDb2dVertex
 10
116.0005411729114
 20
97.58071743187114
 30
0.0
  0
VERTEX
  5
B67
330
B63
100
AcDbEntity
  8
レイヤー_1
 62
     7
100
AcDbVertex
100
AcDb2dVertex
 10
116.4449581729114
 20
97.79293543187113
 30
0.0
  0
VERTEX
  5
B68
330
B63
100
AcDbEntity
  8
レイヤー_1
 62
     7
100
AcDbVertex
100
AcDb2dVertex
 10
116.8473461729114
 20
98.08921343187114
 30
0.0
  0
VERTEX
  5
B69
330
B63
100
AcDbEntity
  8
レイヤー_1
 62
     7
100
AcDbVertex
100
AcDb2dVertex
 10
117.2070141729114
 20
98.42752143187114
 30
0.0
  0
VERTEX
  5
B6A
330
B63
100
AcDbEntity
  8
レイヤー_1
 62
     7
100
AcDbVertex
100
AcDb2dVertex
 10
117.4822771729114
 20
98.82990843187114
 30
0.0
  0
VERTEX
  5
B6B
330
B63
100
AcDbEntity
  8
レイヤー_1
 62
     7
100
AcDbVertex
100
AcDb2dVertex
 10
117.6938061729114
 20
99.29568543187114
 30
0.0
  0
VERTEX
  5
B6C
330
B63
100
AcDbEntity
  8
レイヤー_1
 62
     7
100
AcDbVertex
100
AcDb2dVertex
 10
117.8209301729114
 20
99.76146243187114
 30
0.0
  0
VERTEX
  5
B6D
330
B63
100
AcDbEntity
  8
レイヤー_1
 62
     7
100
AcDbVertex
100
AcDb2dVertex
 10
117.8633041729114
 20
100.2692694318711
 30
0.0
  0
VERTEX
  5
B6E
330
B63
100
AcDbEntity
  8
レイヤー_1
 62
     7
100
AcDbVertex
100
AcDb2dVertex
 10
117.8209301729114
 20
100.7557174318711
 30
0.0
  0
VERTEX
  5
B6F
330
B63
100
AcDbEntity
  8
レイヤー_1
 62
     7
100
AcDbVertex
100
AcDb2dVertex
 10
117.6938061729114
 20
101.2428534318711
 30
0.0
  0
VERTEX
  5
B70
330
B63
100
AcDbEntity
  8
レイヤー_1
 62
     7
100
AcDbVertex
100
AcDb2dVertex
 10
117.4822771729114
 20
101.6872714318711
 30
0.0
  0
VERTEX
  5
B71
330
B63
100
AcDbEntity
  8
レイヤー_1
 62
     7
100
AcDbVertex
100
AcDb2dVertex
 10
117.2070141729114
 20
102.0896584318711
 30
0.0
  0
VERTEX
  5
B72
330
B63
100
AcDbEntity
  8
レイヤー_1
 62
     7
100
AcDbVertex
100
AcDb2dVertex
 10
116.8473461729114
 20
102.4493264318711
 30
0.0
  0
VERTEX
  5
B73
330
B63
100
AcDbEntity
  8
レイヤー_1
 62
     7
100
AcDbVertex
100
AcDb2dVertex
 10
116.4449581729114
 20
102.7242444318711
 30
0.0
  0
VERTEX
  5
B74
330
B63
100
AcDbEntity
  8
レイヤー_1
 62
     7
100
AcDbVertex
100
AcDb2dVertex
 10
116.0005411729114
 20
102.9364624318711
 30
0.0
  0
VERTEX
  5
B75
330
B63
100
AcDbEntity
  8
レイヤー_1
 62
     7
100
AcDbVertex
100
AcDb2dVertex
 10
115.5137491729114
 20
103.0632424318711
 30
0.0
  0
VERTEX
  5
B76
330
B63
100
AcDbEntity
  8
レイヤー_1
 62
     7
100
AcDbVertex
100
AcDb2dVertex
 10
115.0059421729114
 20
103.1052724318711
 30
0.0
  0
VERTEX
  5
B77
330
B63
100
AcDbEntity
  8
レイヤー_1
 62
     7
100
AcDbVertex
100
AcDb2dVertex
 10
114.5188061729114
 20
103.0632424318711
 30
0.0
  0
VERTEX
  5
B78
330
B63
100
AcDbEntity
  8
レイヤー_1
 62
     7
100
AcDbVertex
100
AcDb2dVertex
 10
114.0320141729114
 20
102.9364624318711
 30
0.0
  0
VERTEX
  5
B79
330
B63
100
AcDbEntity
  8
レイヤー_1
 62
     7
100
AcDbVertex
100
AcDb2dVertex
 10
113.5875961729114
 20
102.7242444318711
 30
0.0
  0
VERTEX
  5
B7A
330
B63
100
AcDbEntity
  8
レイヤー_1
 62
     7
100
AcDbVertex
100
AcDb2dVertex
 10
113.1855541729114
 20
102.4493264318711
 30
0.0
  0
VERTEX
  5
B7B
330
B63
100
AcDbEntity
  8
レイヤー_1
 62
     7
100
AcDbVertex
100
AcDb2dVertex
 10
112.8255411729114
 20
102.0896584318711
 30
0.0
  0
VERTEX
  5
B7C
330
B63
100
AcDbEntity
  8
レイヤー_1
 62
     7
100
AcDbVertex
100
AcDb2dVertex
 10
112.5506231729114
 20
101.6872714318711
 30
0.0
  0
VERTEX
  5
B7D
330
B63
100
AcDbEntity
  8
レイヤー_1
 62
     7
100
AcDbVertex
100
AcDb2dVertex
 10
112.3387491729114
 20
101.2428534318711
 30
0.0
  0
VERTEX
  5
B7E
330
B63
100
AcDbEntity
  8
レイヤー_1
 62
     7
100
AcDbVertex
100
AcDb2dVertex
 10
112.2116251729114
 20
100.7557174318711
 30
0.0
  0
VERTEX
  5
B7F
330
B63
100
AcDbEntity
  8
レイヤー_1
 62
     7
100
AcDbVertex
100
AcDb2dVertex
 10
112.1695951729114
 20
100.2692694318711
 30
0.0
  0
VERTEX
  5
B80
330
B63
100
AcDbEntity
  8
レイヤー_1
 62
     7
100
AcDbVertex
100
AcDb2dVertex
 10
112.2116251729114
 20
99.76146243187114
 30
0.0
  0
VERTEX
  5
B81
330
B63
100
AcDbEntity
  8
レイヤー_1
 62
     7
100
AcDbVertex
100
AcDb2dVertex
 10
112.3387491729114
 20
99.29568543187114
 30
0.0
  0
VERTEX
  5
B82
330
B63
100
AcDbEntity
  8
レイヤー_1
 62
     7
100
AcDbVertex
100
AcDb2dVertex
 10
112.5506231729114
 20
98.82990843187114
 30
0.0
  0
VERTEX
  5
B83
330
B63
100
AcDbEntity
  8
レイヤー_1
 62
     7
100
AcDbVertex
100
AcDb2dVertex
 10
112.8255411729114
 20
98.42752143187114
 30
0.0
  0
VERTEX
  5
B84
330
B63
100
AcDbEntity
  8
レイヤー_1
 62
     7
100
AcDbVertex
100
AcDb2dVertex
 10
113.1855541729114
 20
98.08921343187114
 30
0.0
  0
VERTEX
  5
B85
330
B63
100
AcDbEntity
  8
レイヤー_1
 62
     7
100
AcDbVertex
100
AcDb2dVertex
 10
113.5875961729114
 20
97.79293543187113
 30
0.0
  0
VERTEX
  5
B86
330
B63
100
AcDbEntity
  8
レイヤー_1
 62
     7
100
AcDbVertex
100
AcDb2dVertex
 10
114.0320141729114
 20
97.58071743187114
 30
0.0
  0
VERTEX
  5
B87
330
B63
100
AcDbEntity
  8
レイヤー_1
 62
     7
100
AcDbVertex
100
AcDb2dVertex
 10
114.5188061729114
 20
97.45393743187113
 30
0.0
  0
SEQEND
  5
B88
330
B63
100
AcDbEntity
  8
レイヤー_1
 62
     7
  0
POLYLINE
  5
B89
330
75
100
AcDbEntity
  8
レイヤー_1
 62
     7
100
AcDb2dPolyline
 66
     1
 10
0.0
 20
0.0
 30
0.0
 70
     1
  0
VERTEX
  5
B8A
330
B89
100
AcDbEntity
  8
レイヤー_1
 62
     7
100
AcDbVertex
100
AcDb2dVertex
 10
115.0059421729114
 20
96.41696343187113
 30
0.0
  0
VERTEX
  5
B8B
330
B89
100
AcDbEntity
  8
レイヤー_1
 62
     7
100
AcDbVertex
100
AcDb2dVertex
 10
115.5561241729114
 20
96.45899443187113
 30
0.0
  0
VERTEX
  5
B8C
330
B89
100
AcDbEntity
  8
レイヤー_1
 62
     7
100
AcDbVertex
100
AcDb2dVertex
 10
116.1063061729114
 20
96.56510343187113
 30
0.0
  0
VERTEX
  5
B8D
330
B89
100
AcDbEntity
  8
レイヤー_1
 62
     7
100
AcDbVertex
100
AcDb2dVertex
 10
116.6144571729114
 20
96.75527243187113
 30
0.0
  0
VERTEX
  5
B8E
330
B89
100
AcDbEntity
  8
レイヤー_1
 62
     7
100
AcDbVertex
100
AcDb2dVertex
 10
117.1012491729114
 20
97.03087943187114
 30
0.0
  0
VERTEX
  5
B8F
330
B89
100
AcDbEntity
  8
レイヤー_1
 62
     7
100
AcDbVertex
100
AcDb2dVertex
 10
117.5456661729114
 20
97.34782843187112
 30
0.0
  0
VERTEX
  5
B90
330
B89
100
AcDbEntity
  8
レイヤー_1
 62
     7
100
AcDbVertex
100
AcDb2dVertex
 10
117.9266941729114
 20
97.75021543187115
 30
0.0
  0
VERTEX
  5
B91
330
B89
100
AcDbEntity
  8
レイヤー_1
 62
     7
100
AcDbVertex
100
AcDb2dVertex
 10
118.2443321729114
 20
98.17396243187113
 30
0.0
  0
VERTEX
  5
B92
330
B89
100
AcDbEntity
  8
レイヤー_1
 62
     7
100
AcDbVertex
100
AcDb2dVertex
 10
118.5195951729114
 20
98.66041043187113
 30
0.0
  0
VERTEX
  5
B93
330
B89
100
AcDbEntity
  8
レイヤー_1
 62
     7
100
AcDbVertex
100
AcDb2dVertex
 10
118.7101091729114
 20
99.16821743187114
 30
0.0
  0
VERTEX
  5
B94
330
B89
100
AcDbEntity
  8
レイヤー_1
 62
     7
100
AcDbVertex
100
AcDb2dVertex
 10
118.8158731729114
 20
99.71874343187113
 30
0.0
  0
VERTEX
  5
B95
330
B89
100
AcDbEntity
  8
レイヤー_1
 62
     7
100
AcDbVertex
100
AcDb2dVertex
 10
118.8582481729115
 20
100.2692694318711
 30
0.0
  0
VERTEX
  5
B96
330
B89
100
AcDbEntity
  8
レイヤー_1
 62
     7
100
AcDbVertex
100
AcDb2dVertex
 10
118.8158731729114
 20
100.8197964318711
 30
0.0
  0
VERTEX
  5
B97
330
B89
100
AcDbEntity
  8
レイヤー_1
 62
     7
100
AcDbVertex
100
AcDb2dVertex
 10
118.7101091729114
 20
101.3489624318711
 30
0.0
  0
VERTEX
  5
B98
330
B89
100
AcDbEntity
  8
レイヤー_1
 62
     7
100
AcDbVertex
100
AcDb2dVertex
 10
118.5195951729114
 20
101.8567694318711
 30
0.0
  0
VERTEX
  5
B99
330
B89
100
AcDbEntity
  8
レイヤー_1
 62
     7
100
AcDbVertex
100
AcDb2dVertex
 10
118.2443321729114
 20
102.3432174318711
 30
0.0
  0
VERTEX
  5
B9A
330
B89
100
AcDbEntity
  8
レイヤー_1
 62
     7
100
AcDbVertex
100
AcDb2dVertex
 10
117.9266941729114
 20
102.7876344318711
 30
0.0
  0
VERTEX
  5
B9B
330
B89
100
AcDbEntity
  8
レイヤー_1
 62
     7
100
AcDbVertex
100
AcDb2dVertex
 10
117.5456661729114
 20
103.1686624318711
 30
0.0
  0
VERTEX
  5
B9C
330
B89
100
AcDbEntity
  8
レイヤー_1
 62
     7
100
AcDbVertex
100
AcDb2dVertex
 10
117.1012491729114
 20
103.5076594318711
 30
0.0
  0
VERTEX
  5
B9D
330
B89
100
AcDbEntity
  8
レイヤー_1
 62
     7
100
AcDbVertex
100
AcDb2dVertex
 10
116.6144571729114
 20
103.7619074318711
 30
0.0
  0
VERTEX
  5
B9E
330
B89
100
AcDbEntity
  8
レイヤー_1
 62
     7
100
AcDbVertex
100
AcDb2dVertex
 10
116.1063061729114
 20
103.9520764318711
 30
0.0
  0
VERTEX
  5
B9F
330
B89
100
AcDbEntity
  8
レイヤー_1
 62
     7
100
AcDbVertex
100
AcDb2dVertex
 10
115.5561241729114
 20
104.0788564318711
 30
0.0
  0
VERTEX
  5
BA0
330
B89
100
AcDbEntity
  8
レイヤー_1
 62
     7
100
AcDbVertex
100
AcDb2dVertex
 10
115.0059421729114
 20
104.1215754318711
 30
0.0
  0
VERTEX
  5
BA1
330
B89
100
AcDbEntity
  8
レイヤー_1
 62
     7
100
AcDbVertex
100
AcDb2dVertex
 10
114.4767751729114
 20
104.0788564318711
 30
0.0
  0
VERTEX
  5
BA2
330
B89
100
AcDbEntity
  8
レイヤー_1
 62
     7
100
AcDbVertex
100
AcDb2dVertex
 10
113.9262491729114
 20
103.9520764318711
 30
0.0
  0
VERTEX
  5
BA3
330
B89
100
AcDbEntity
  8
レイヤー_1
 62
     7
100
AcDbVertex
100
AcDb2dVertex
 10
113.4184421729114
 20
103.7619074318711
 30
0.0
  0
VERTEX
  5
BA4
330
B89
100
AcDbEntity
  8
レイヤー_1
 62
     7
100
AcDbVertex
100
AcDb2dVertex
 10
112.9313061729114
 20
103.5076594318711
 30
0.0
  0
VERTEX
  5
BA5
330
B89
100
AcDbEntity
  8
レイヤー_1
 62
     7
100
AcDbVertex
100
AcDb2dVertex
 10
112.4868881729114
 20
103.1686624318711
 30
0.0
  0
VERTEX
  5
BA6
330
B89
100
AcDbEntity
  8
レイヤー_1
 62
     7
100
AcDbVertex
100
AcDb2dVertex
 10
112.1058611729114
 20
102.7876344318711
 30
0.0
  0
VERTEX
  5
BA7
330
B89
100
AcDbEntity
  8
レイヤー_1
 62
     7
100
AcDbVertex
100
AcDb2dVertex
 10
111.7672081729114
 20
102.3432174318711
 30
0.0
  0
VERTEX
  5
BA8
330
B89
100
AcDbEntity
  8
レイヤー_1
 62
     7
100
AcDbVertex
100
AcDb2dVertex
 10
111.5133041729114
 20
101.8567694318711
 30
0.0
  0
VERTEX
  5
BA9
330
B89
100
AcDbEntity
  8
レイヤー_1
 62
     7
100
AcDbVertex
100
AcDb2dVertex
 10
111.3227901729114
 20
101.3489624318711
 30
0.0
  0
VERTEX
  5
BAA
330
B89
100
AcDbEntity
  8
レイヤー_1
 62
     7
100
AcDbVertex
100
AcDb2dVertex
 10
111.1956661729114
 20
100.8197964318711
 30
0.0
  0
VERTEX
  5
BAB
330
B89
100
AcDbEntity
  8
レイヤー_1
 62
     7
100
AcDbVertex
100
AcDb2dVertex
 10
111.1746511729114
 20
100.2692694318711
 30
0.0
  0
VERTEX
  5
BAC
330
B89
100
AcDbEntity
  8
レイヤー_1
 62
     7
100
AcDbVertex
100
AcDb2dVertex
 10
111.1956661729114
 20
99.71874343187113
 30
0.0
  0
VERTEX
  5
BAD
330
B89
100
AcDbEntity
  8
レイヤー_1
 62
     7
100
AcDbVertex
100
AcDb2dVertex
 10
111.3227901729114
 20
99.16821743187114
 30
0.0
  0
VERTEX
  5
BAE
330
B89
100
AcDbEntity
  8
レイヤー_1
 62
     7
100
AcDbVertex
100
AcDb2dVertex
 10
111.5133041729114
 20
98.66041043187113
 30
0.0
  0
VERTEX
  5
BAF
330
B89
100
AcDbEntity
  8
レイヤー_1
 62
     7
100
AcDbVertex
100
AcDb2dVertex
 10
111.7672081729114
 20
98.17396243187113
 30
0.0
  0
VERTEX
  5
BB0
330
B89
100
AcDbEntity
  8
レイヤー_1
 62
     7
100
AcDbVertex
100
AcDb2dVertex
 10
112.1058611729114
 20
97.75021543187115
 30
0.0
  0
VERTEX
  5
BB1
330
B89
100
AcDbEntity
  8
レイヤー_1
 62
     7
100
AcDbVertex
100
AcDb2dVertex
 10
112.4868881729114
 20
97.34782843187112
 30
0.0
  0
VERTEX
  5
BB2
330
B89
100
AcDbEntity
  8
レイヤー_1
 62
     7
100
AcDbVertex
100
AcDb2dVertex
 10
112.9313061729114
 20
97.03087943187114
 30
0.0
  0
VERTEX
  5
BB3
330
B89
100
AcDbEntity
  8
レイヤー_1
 62
     7
100
AcDbVertex
100
AcDb2dVertex
 10
113.4184421729114
 20
96.75527243187113
 30
0.0
  0
VERTEX
  5
BB4
330
B89
100
AcDbEntity
  8
レイヤー_1
 62
     7
100
AcDbVertex
100
AcDb2dVertex
 10
113.9262491729114
 20
96.56510343187113
 30
0.0
  0
VERTEX
  5
BB5
330
B89
100
AcDbEntity
  8
レイヤー_1
 62
     7
100
AcDbVertex
100
AcDb2dVertex
 10
114.4767751729114
 20
96.45899443187113
 30
0.0
  0
SEQEND
  5
BB6
330
B89
100
AcDbEntity
  8
レイヤー_1
 62
     7
  0
POLYLINE
  5
BB7
330
75
100
AcDbEntity
  8
レイヤー_1
 62
     7
100
AcDb2dPolyline
 66
     1
 10
0.0
 20
0.0
 30
0.0
 70
     1
  0
VERTEX
  5
BB8
330
BB7
100
AcDbEntity
  8
レイヤー_1
 62
     7
100
AcDbVertex
100
AcDb2dVertex
 10
130.0131231729114
 20
98.76651943187113
 30
0.0
  0
VERTEX
  5
BB9
330
BB7
100
AcDbEntity
  8
レイヤー_1
 62
     7
100
AcDbVertex
100
AcDb2dVertex
 10
130.3517751729114
 20
98.80854943187115
 30
0.0
  0
VERTEX
  5
BBA
330
BB7
100
AcDbEntity
  8
レイヤー_1
 62
     7
100
AcDbVertex
100
AcDb2dVertex
 10
130.6690691729114
 20
98.91465843187113
 30
0.0
  0
VERTEX
  5
BBB
330
BB7
100
AcDbEntity
  8
レイヤー_1
 62
     7
100
AcDbVertex
100
AcDb2dVertex
 10
130.9443321729114
 20
99.08346743187115
 30
0.0
  0
VERTEX
  5
BBC
330
BB7
100
AcDbEntity
  8
レイヤー_1
 62
     7
100
AcDbVertex
100
AcDb2dVertex
 10
131.1772201729114
 20
99.33771543187113
 30
0.0
  0
VERTEX
  5
BBD
330
BB7
100
AcDbEntity
  8
レイヤー_1
 62
     7
100
AcDbVertex
100
AcDb2dVertex
 10
131.3677341729114
 20
99.61263443187114
 30
0.0
  0
VERTEX
  5
BBE
330
BB7
100
AcDbEntity
  8
レイヤー_1
 62
     7
100
AcDbVertex
100
AcDb2dVertex
 10
131.4734981729114
 20
99.93027243187114
 30
0.0
  0
VERTEX
  5
BBF
330
BB7
100
AcDbEntity
  8
レイヤー_1
 62
     7
100
AcDbVertex
100
AcDb2dVertex
 10
131.5158731729114
 20
100.2692694318711
 30
0.0
  0
VERTEX
  5
BC0
330
BB7
100
AcDbEntity
  8
レイヤー_1
 62
     7
100
AcDbVertex
100
AcDb2dVertex
 10
131.4734981729114
 20
100.5869074318711
 30
0.0
  0
VERTEX
  5
BC1
330
BB7
100
AcDbEntity
  8
レイヤー_1
 62
     7
100
AcDbVertex
100
AcDb2dVertex
 10
131.3677341729114
 20
100.9038564318711
 30
0.0
  0
VERTEX
  5
BC2
330
BB7
100
AcDbEntity
  8
レイヤー_1
 62
     7
100
AcDbVertex
100
AcDb2dVertex
 10
131.1772201729114
 20
101.2001344318711
 30
0.0
  0
VERTEX
  5
BC3
330
BB7
100
AcDbEntity
  8
レイヤー_1
 62
     7
100
AcDbVertex
100
AcDb2dVertex
 10
130.9443321729114
 20
101.4330234318711
 30
0.0
  0
VERTEX
  5
BC4
330
BB7
100
AcDbEntity
  8
レイヤー_1
 62
     7
100
AcDbVertex
100
AcDb2dVertex
 10
130.6690691729114
 20
101.6238814318711
 30
0.0
  0
VERTEX
  5
BC5
330
BB7
100
AcDbEntity
  8
レイヤー_1
 62
     7
100
AcDbVertex
100
AcDb2dVertex
 10
130.3517751729114
 20
101.7293014318711
 30
0.0
  0
VERTEX
  5
BC6
330
BB7
100
AcDbEntity
  8
レイヤー_1
 62
     7
100
AcDbVertex
100
AcDb2dVertex
 10
130.0131231729114
 20
101.7720204318711
 30
0.0
  0
VERTEX
  5
BC7
330
BB7
100
AcDbEntity
  8
レイヤー_1
 62
     7
100
AcDbVertex
100
AcDb2dVertex
 10
129.6741251729114
 20
101.7293014318711
 30
0.0
  0
VERTEX
  5
BC8
330
BB7
100
AcDbEntity
  8
レイヤー_1
 62
     7
100
AcDbVertex
100
AcDb2dVertex
 10
129.3568321729114
 20
101.6238814318711
 30
0.0
  0
VERTEX
  5
BC9
330
BB7
100
AcDbEntity
  8
レイヤー_1
 62
     7
100
AcDbVertex
100
AcDb2dVertex
 10
129.0815691729114
 20
101.4330234318711
 30
0.0
  0
VERTEX
  5
BCA
330
BB7
100
AcDbEntity
  8
レイヤー_1
 62
     7
100
AcDbVertex
100
AcDb2dVertex
 10
128.8486801729114
 20
101.2001344318711
 30
0.0
  0
VERTEX
  5
BCB
330
BB7
100
AcDbEntity
  8
レイヤー_1
 62
     7
100
AcDbVertex
100
AcDb2dVertex
 10
128.6581661729114
 20
100.9038564318711
 30
0.0
  0
VERTEX
  5
BCC
330
BB7
100
AcDbEntity
  8
レイヤー_1
 62
     7
100
AcDbVertex
100
AcDb2dVertex
 10
128.5524021729114
 20
100.5869074318711
 30
0.0
  0
VERTEX
  5
BCD
330
BB7
100
AcDbEntity
  8
レイヤー_1
 62
     7
100
AcDbVertex
100
AcDb2dVertex
 10
128.5100271729114
 20
100.2692694318711
 30
0.0
  0
VERTEX
  5
BCE
330
BB7
100
AcDbEntity
  8
レイヤー_1
 62
     7
100
AcDbVertex
100
AcDb2dVertex
 10
128.5524021729114
 20
99.93027243187114
 30
0.0
  0
VERTEX
  5
BCF
330
BB7
100
AcDbEntity
  8
レイヤー_1
 62
     7
100
AcDbVertex
100
AcDb2dVertex
 10
128.6581661729114
 20
99.61263443187114
 30
0.0
  0
VERTEX
  5
BD0
330
BB7
100
AcDbEntity
  8
レイヤー_1
 62
     7
100
AcDbVertex
100
AcDb2dVertex
 10
128.8486801729114
 20
99.33771543187113
 30
0.0
  0
VERTEX
  5
BD1
330
BB7
100
AcDbEntity
  8
レイヤー_1
 62
     7
100
AcDbVertex
100
AcDb2dVertex
 10
129.0815691729114
 20
99.08346743187115
 30
0.0
  0
VERTEX
  5
BD2
330
BB7
100
AcDbEntity
  8
レイヤー_1
 62
     7
100
AcDbVertex
100
AcDb2dVertex
 10
129.3568321729114
 20
98.91465843187113
 30
0.0
  0
VERTEX
  5
BD3
330
BB7
100
AcDbEntity
  8
レイヤー_1
 62
     7
100
AcDbVertex
100
AcDb2dVertex
 10
129.6741251729114
 20
98.80854943187115
 30
0.0
  0
SEQEND
  5
BD4
330
BB7
100
AcDbEntity
  8
レイヤー_1
 62
     7
  0
POLYLINE
  5
BD5
330
75
100
AcDbEntity
  8
レイヤー_1
 62
     7
100
AcDb2dPolyline
 66
     1
 10
0.0
 20
0.0
 30
0.0
 70
     1
  0
VERTEX
  5
BD6
330
BD5
100
AcDbEntity
  8
レイヤー_1
 62
     7
100
AcDbVertex
100
AcDb2dVertex
 10
130.0131231729114
 20
97.77157543187115
 30
0.0
  0
VERTEX
  5
BD7
330
BD5
100
AcDbEntity
  8
レイヤー_1
 62
     7
100
AcDbVertex
100
AcDb2dVertex
 10
130.4575401729114
 20
97.79293543187113
 30
0.0
  0
VERTEX
  5
BD8
330
BD5
100
AcDbEntity
  8
レイヤー_1
 62
     7
100
AcDbVertex
100
AcDb2dVertex
 10
130.8595821729114
 20
97.91971443187113
 30
0.0
  0
VERTEX
  5
BD9
330
BD5
100
AcDbEntity
  8
レイヤー_1
 62
     7
100
AcDbVertex
100
AcDb2dVertex
 10
131.2616251729114
 20
98.08921343187114
 30
0.0
  0
VERTEX
  5
BDA
330
BD5
100
AcDbEntity
  8
レイヤー_1
 62
     7
100
AcDbVertex
100
AcDb2dVertex
 10
131.6216381729114
 20
98.34277243187115
 30
0.0
  0
VERTEX
  5
BDB
330
BD5
100
AcDbEntity
  8
レイヤー_1
 62
     7
100
AcDbVertex
100
AcDb2dVertex
 10
131.9392751729114
 20
98.66041043187113
 30
0.0
  0
VERTEX
  5
BDC
330
BD5
100
AcDbEntity
  8
レイヤー_1
 62
     7
100
AcDbVertex
100
AcDb2dVertex
 10
132.1718191729114
 20
99.02007843187114
 30
0.0
  0
VERTEX
  5
BDD
330
BD5
100
AcDbEntity
  8
レイヤー_1
 62
     7
100
AcDbVertex
100
AcDb2dVertex
 10
132.3623331729114
 20
99.40110543187113
 30
0.0
  0
VERTEX
  5
BDE
330
BD5
100
AcDbEntity
  8
レイヤー_1
 62
     7
100
AcDbVertex
100
AcDb2dVertex
 10
132.4684421729114
 20
99.82485243187115
 30
0.0
  0
VERTEX
  5
BDF
330
BD5
100
AcDbEntity
  8
レイヤー_1
 62
     7
100
AcDbVertex
100
AcDb2dVertex
 10
132.5104721729114
 20
100.2692694318711
 30
0.0
  0
VERTEX
  5
BE0
330
BD5
100
AcDbEntity
  8
レイヤー_1
 62
     7
100
AcDbVertex
100
AcDb2dVertex
 10
132.4684421729114
 20
100.6923274318711
 30
0.0
  0
VERTEX
  5
BE1
330
BD5
100
AcDbEntity
  8
レイヤー_1
 62
     7
100
AcDbVertex
100
AcDb2dVertex
 10
132.3623331729114
 20
101.1160744318711
 30
0.0
  0
VERTEX
  5
BE2
330
BD5
100
AcDbEntity
  8
レイヤー_1
 62
     7
100
AcDbVertex
100
AcDb2dVertex
 10
132.1718191729114
 20
101.5177724318711
 30
0.0
  0
VERTEX
  5
BE3
330
BD5
100
AcDbEntity
  8
レイヤー_1
 62
     7
100
AcDbVertex
100
AcDb2dVertex
 10
131.9392751729114
 20
101.8781294318711
 30
0.0
  0
VERTEX
  5
BE4
330
BD5
100
AcDbEntity
  8
レイヤー_1
 62
     7
100
AcDbVertex
100
AcDb2dVertex
 10
131.6216381729114
 20
102.1744074318711
 30
0.0
  0
VERTEX
  5
BE5
330
BD5
100
AcDbEntity
  8
レイヤー_1
 62
     7
100
AcDbVertex
100
AcDb2dVertex
 10
131.2616251729114
 20
102.4279664318711
 30
0.0
  0
VERTEX
  5
BE6
330
BD5
100
AcDbEntity
  8
レイヤー_1
 62
     7
100
AcDbVertex
100
AcDb2dVertex
 10
130.8595821729114
 20
102.6188244318711
 30
0.0
  0
VERTEX
  5
BE7
330
BD5
100
AcDbEntity
  8
レイヤー_1
 62
     7
100
AcDbVertex
100
AcDb2dVertex
 10
130.4575401729114
 20
102.7242444318711
 30
0.0
  0
VERTEX
  5
BE8
330
BD5
100
AcDbEntity
  8
レイヤー_1
 62
     7
100
AcDbVertex
100
AcDb2dVertex
 10
130.0131231729114
 20
102.7669634318711
 30
0.0
  0
VERTEX
  5
BE9
330
BD5
100
AcDbEntity
  8
レイヤー_1
 62
     7
100
AcDbVertex
100
AcDb2dVertex
 10
129.5897201729114
 20
102.7242444318711
 30
0.0
  0
VERTEX
  5
BEA
330
BD5
100
AcDbEntity
  8
レイヤー_1
 62
     7
100
AcDbVertex
100
AcDb2dVertex
 10
129.1663181729115
 20
102.6188244318711
 30
0.0
  0
VERTEX
  5
BEB
330
BD5
100
AcDbEntity
  8
レイヤー_1
 62
     7
100
AcDbVertex
100
AcDb2dVertex
 10
128.7642751729114
 20
102.4279664318711
 30
0.0
  0
VERTEX
  5
BEC
330
BD5
100
AcDbEntity
  8
レイヤー_1
 62
     7
100
AcDbVertex
100
AcDb2dVertex
 10
128.4042631729114
 20
102.1744074318711
 30
0.0
  0
VERTEX
  5
BED
330
BD5
100
AcDbEntity
  8
レイヤー_1
 62
     7
100
AcDbVertex
100
AcDb2dVertex
 10
128.1079851729114
 20
101.8781294318711
 30
0.0
  0
VERTEX
  5
BEE
330
BD5
100
AcDbEntity
  8
レイヤー_1
 62
     7
100
AcDbVertex
100
AcDb2dVertex
 10
127.8540811729114
 20
101.5177724318711
 30
0.0
  0
VERTEX
  5
BEF
330
BD5
100
AcDbEntity
  8
レイヤー_1
 62
     7
100
AcDbVertex
100
AcDb2dVertex
 10
127.6635671729114
 20
101.1160744318711
 30
0.0
  0
VERTEX
  5
BF0
330
BD5
100
AcDbEntity
  8
レイヤー_1
 62
     7
100
AcDbVertex
100
AcDb2dVertex
 10
127.5574581729114
 20
100.6923274318711
 30
0.0
  0
VERTEX
  5
BF1
330
BD5
100
AcDbEntity
  8
レイヤー_1
 62
     7
100
AcDbVertex
100
AcDb2dVertex
 10
127.5154281729114
 20
100.2692694318711
 30
0.0
  0
VERTEX
  5
BF2
330
BD5
100
AcDbEntity
  8
レイヤー_1
 62
     7
100
AcDbVertex
100
AcDb2dVertex
 10
127.5574581729114
 20
99.82485243187115
 30
0.0
  0
VERTEX
  5
BF3
330
BD5
100
AcDbEntity
  8
レイヤー_1
 62
     7
100
AcDbVertex
100
AcDb2dVertex
 10
127.6635671729114
 20
99.40110543187113
 30
0.0
  0
VERTEX
  5
BF4
330
BD5
100
AcDbEntity
  8
レイヤー_1
 62
     7
100
AcDbVertex
100
AcDb2dVertex
 10
127.8540811729114
 20
99.02007843187114
 30
0.0
  0
VERTEX
  5
BF5
330
BD5
100
AcDbEntity
  8
レイヤー_1
 62
     7
100
AcDbVertex
100
AcDb2dVertex
 10
128.1079851729114
 20
98.66041043187113
 30
0.0
  0
VERTEX
  5
BF6
330
BD5
100
AcDbEntity
  8
レイヤー_1
 62
     7
100
AcDbVertex
100
AcDb2dVertex
 10
128.4042631729114
 20
98.34277243187115
 30
0.0
  0
VERTEX
  5
BF7
330
BD5
100
AcDbEntity
  8
レイヤー_1
 62
     7
100
AcDbVertex
100
AcDb2dVertex
 10
128.7642751729114
 20
98.08921343187114
 30
0.0
  0
VERTEX
  5
BF8
330
BD5
100
AcDbEntity
  8
レイヤー_1
 62
     7
100
AcDbVertex
100
AcDb2dVertex
 10
129.1663181729115
 20
97.91971443187113
 30
0.0
  0
VERTEX
  5
BF9
330
BD5
100
AcDbEntity
  8
レイヤー_1
 62
     7
100
AcDbVertex
100
AcDb2dVertex
 10
129.5897201729114
 20
97.79293543187113
 30
0.0
  0
SEQEND
  5
BFA
330
BD5
100
AcDbEntity
  8
レイヤー_1
 62
     7
  0
LINE
  5
BFB
330
75
100
AcDbEntity
  8
レイヤー_1
 62
     7
100
AcDbLine
 10
155.0107351729114
 20
107.2538564318711
 30
0.0
 11
155.0107351729114
 21
90.25713343187112
 31
0.0
  0
POLYLINE
  5
BFC
330
75
100
AcDbEntity
  8
レイヤー_1
 62
     7
100
AcDb2dPolyline
 66
     1
 10
0.0
 20
0.0
 30
0.0
  0
VERTEX
  5
BFD
330
BFC
100
AcDbEntity
  8
レイヤー_1
 62
     7
100
AcDbVertex
100
AcDb2dVertex
 10
155.0107351729114
 20
107.2538564318711
 30
0.0
  0
VERTEX
  5
BFE
330
BFC
100
AcDbEntity
  8
レイヤー_1
 62
     7
100
AcDbVertex
100
AcDb2dVertex
 10
154.9683611729114
 20
107.7409924318711
 30
0.0
  0
VERTEX
  5
BFF
330
BFC
100
AcDbEntity
  8
レイヤー_1
 62
     7
100
AcDbVertex
100
AcDb2dVertex
 10
154.8625961729114
 20
108.1854104318711
 30
0.0
  0
VERTEX
  5
C00
330
BFC
100
AcDbEntity
  8
レイヤー_1
 62
     7
100
AcDbVertex
100
AcDb2dVertex
 10
154.6934421729114
 20
108.6298274318711
 30
0.0
  0
VERTEX
  5
C01
330
BFC
100
AcDbEntity
  8
レイヤー_1
 62
     7
100
AcDbVertex
100
AcDb2dVertex
 10
154.4391941729115
 20
109.0322144318711
 30
0.0
  0
VERTEX
  5
C02
330
BFC
100
AcDbEntity
  8
レイヤー_1
 62
     7
100
AcDbVertex
100
AcDb2dVertex
 10
154.1429161729114
 20
109.3918824318711
 30
0.0
  0
VERTEX
  5
C03
330
BFC
100
AcDbEntity
  8
レイヤー_1
 62
     7
100
AcDbVertex
100
AcDb2dVertex
 10
153.7832481729114
 20
109.6881604318711
 30
0.0
  0
VERTEX
  5
C04
330
BFC
100
AcDbEntity
  8
レイヤー_1
 62
     7
100
AcDbVertex
100
AcDb2dVertex
 10
153.3808611729114
 20
109.9424084318711
 30
0.0
  0
VERTEX
  5
C05
330
BFC
100
AcDbEntity
  8
レイヤー_1
 62
     7
100
AcDbVertex
100
AcDb2dVertex
 10
152.9364431729114
 20
110.1119074318711
 30
0.0
  0
VERTEX
  5
C06
330
BFC
100
AcDbEntity
  8
レイヤー_1
 62
     7
100
AcDbVertex
100
AcDb2dVertex
 10
152.4706661729114
 20
110.2173274318711
 30
0.0
  0
VERTEX
  5
C07
330
BFC
100
AcDbEntity
  8
レイヤー_1
 62
     7
100
AcDbVertex
100
AcDb2dVertex
 10
152.0052341729114
 20
110.2600464318711
 30
0.0
  0
SEQEND
  5
C08
330
BFC
100
AcDbEntity
  8
レイヤー_1
 62
     7
  0
LINE
  5
C09
330
75
100
AcDbEntity
  8
レイヤー_1
 62
     7
100
AcDbLine
 10
108.0206661729114
 20
110.2600464318711
 30
0.0
 11
152.0052341729114
 21
110.2600464318711
 31
0.0
  0
POLYLINE
  5
C0A
330
75
100
AcDbEntity
  8
レイヤー_1
 62
     7
100
AcDb2dPolyline
 66
     1
 10
0.0
 20
0.0
 30
0.0
  0
VERTEX
  5
C0B
330
C0A
100
AcDbEntity
  8
レイヤー_1
 62
     7
100
AcDbVertex
100
AcDb2dVertex
 10
108.0206661729114
 20
110.2600464318711
 30
0.0
  0
VERTEX
  5
C0C
330
C0A
100
AcDbEntity
  8
レイヤー_1
 62
     7
100
AcDbVertex
100
AcDb2dVertex
 10
107.5552341729114
 20
110.2173274318711
 30
0.0
  0
VERTEX
  5
C0D
330
C0A
100
AcDbEntity
  8
レイヤー_1
 62
     7
100
AcDbVertex
100
AcDb2dVertex
 10
107.0894571729114
 20
110.1119074318711
 30
0.0
  0
VERTEX
  5
C0E
330
C0A
100
AcDbEntity
  8
レイヤー_1
 62
     7
100
AcDbVertex
100
AcDb2dVertex
 10
106.6450401729114
 20
109.9424084318711
 30
0.0
  0
VERTEX
  5
C0F
330
C0A
100
AcDbEntity
  8
レイヤー_1
 62
     7
100
AcDbVertex
100
AcDb2dVertex
 10
106.2640121729114
 20
109.6881604318711
 30
0.0
  0
VERTEX
  5
C10
330
C0A
100
AcDbEntity
  8
レイヤー_1
 62
     7
100
AcDbVertex
100
AcDb2dVertex
 10
105.9040001729114
 20
109.3918824318711
 30
0.0
  0
VERTEX
  5
C11
330
C0A
100
AcDbEntity
  8
レイヤー_1
 62
     7
100
AcDbVertex
100
AcDb2dVertex
 10
105.5867071729114
 20
109.0322144318711
 30
0.0
  0
VERTEX
  5
C12
330
C0A
100
AcDbEntity
  8
レイヤー_1
 62
     7
100
AcDbVertex
100
AcDb2dVertex
 10
105.3538181729114
 20
108.6298274318711
 30
0.0
  0
VERTEX
  5
C13
330
C0A
100
AcDbEntity
  8
レイヤー_1
 62
     7
100
AcDbVertex
100
AcDb2dVertex
 10
105.1633041729114
 20
108.1854104318711
 30
0.0
  0
VERTEX
  5
C14
330
C0A
100
AcDbEntity
  8
レイヤー_1
 62
     7
100
AcDbVertex
100
AcDb2dVertex
 10
105.0575401729114
 20
107.7409924318711
 30
0.0
  0
VERTEX
  5
C15
330
C0A
100
AcDbEntity
  8
レイヤー_1
 62
     7
100
AcDbVertex
100
AcDb2dVertex
 10
105.0151651729114
 20
107.2538564318711
 30
0.0
  0
SEQEND
  5
C16
330
C0A
100
AcDbEntity
  8
レイヤー_1
 62
     7
  0
POLYLINE
  5
C17
330
75
100
AcDbEntity
  8
レイヤー_1
 62
     7
100
AcDb2dPolyline
 66
     1
 10
0.0
 20
0.0
 30
0.0
  0
VERTEX
  5
C18
330
C17
100
AcDbEntity
  8
レイヤー_1
 62
     7
100
AcDbVertex
100
AcDb2dVertex
 10
155.0107351729114
 20
90.25713343187112
 30
0.0
  0
VERTEX
  5
C19
330
C17
100
AcDbEntity
  8
レイヤー_1
 62
     7
100
AcDbVertex
100
AcDb2dVertex
 10
105.0151651729114
 20
90.25713343187112
 30
0.0
  0
VERTEX
  5
C1A
330
C17
100
AcDbEntity
  8
レイヤー_1
 62
     7
100
AcDbVertex
100
AcDb2dVertex
 10
105.0151651729114
 20
107.2538564318711
 30
0.0
  0
SEQEND
  5
C1B
330
C17
100
AcDbEntity
  8
レイヤー_1
 62
     7
  0
LINE
  5
C4D
330
75
100
AcDbEntity
  8
レイヤー_1
 62
     7
100
AcDbLine
 10
103.0256231729114
 20
230.8463124318711
 30
0.0
 11
78.55683217291145
 21
230.8463124318711
 31
0.0
  0
LINE
  5
C4E
330
75
100
AcDbEntity
  8
レイヤー_1
 62
     7
100
AcDbLine
 10
103.0256231729114
 20
160.3612094318711
 30
0.0
 11
78.55683217291145
 21
160.3612094318711
 31
0.0
  0
LINE
  5
C58
330
75
100
AcDbEntity
  8
レイヤー_1
 62
     7
100
AcDbLine
 10
96.01933217291145
 20
173.5903754318711
 30
0.0
 11
89.49983317291145
 21
173.5903754318711
 31
0.0
  0
LINE
  5
C59
330
75
100
AcDbEntity
  8
レイヤー_1
 62
     7
100
AcDbLine
 10
96.01933217291145
 20
177.5908204318711
 30
0.0
 11
89.49983317291145
 21
177.5908204318711
 31
0.0
  0
LINE
  5
C63
330
75
100
AcDbEntity
  8
レイヤー_1
 62
     7
100
AcDbLine
 10
96.52713917291146
 20
217.5959584318711
 30
0.0
 11
89.75408117291145
 21
217.5959584318711
 31
0.0
  0
LINE
  5
C64
330
75
100
AcDbEntity
  8
レイヤー_1
 62
     7
100
AcDbLine
 10
96.52713917291146
 20
213.5955134318711
 30
0.0
 11
89.75408117291145
 21
213.5955134318711
 31
0.0
  0
LINE
  5
C6B
330
75
100
AcDbEntity
  8
レイヤー_1
 62
     7
100
AcDbLine
 10
104.0202221729114
 20
159.3452504318711
 30
0.0
 11
104.0202221729114
 21
127.4047364318711
 31
0.0
  0
LINE
  5
C6C
330
75
100
AcDbEntity
  8
レイヤー_1
 62
     7
100
AcDbLine
 10
97.03529017291145
 20
166.3515414318711
 30
0.0
 11
97.03529017291145
 21
127.4047364318711
 31
0.0
  0
LINE
  5
C91
330
75
100
AcDbEntity
  8
レイヤー_1
 62
     7
100
AcDbLine
 10
104.0202221729114
 20
159.3452504318711
 30
0.0
 11
104.0202221729114
 21
127.4047364318711
 31
0.0
  0
LINE
  5
C92
330
75
100
AcDbEntity
  8
レイヤー_1
 62
     7
100
AcDbLine
 10
156.0266941729115
 20
159.3452504318711
 30
0.0
 11
156.0266941729115
 21
127.4047364318711
 31
0.0
  0
LINE
  5
C93
330
75
100
AcDbEntity
  8
レイヤー_1
 62
     7
100
AcDbLine
 10
100.0197771729114
 20
177.5908204318711
 30
0.0
 11
97.52208217291146
 21
177.5908204318711
 31
0.0
  0
LINE
  5
C94
330
75
100
AcDbEntity
  8
レイヤー_1
 62
     7
100
AcDbLine
 10
100.0197771729114
 20
173.5903754318711
 30
0.0
 11
97.52208217291146
 21
173.5903754318711
 31
0.0
  0
POLYLINE
  5
C95
330
75
100
AcDbEntity
  8
レイヤー_1
 62
     7
100
AcDb2dPolyline
 66
     1
 10
0.0
 20
0.0
 30
0.0
  0
VERTEX
  5
C96
330
C95
100
AcDbEntity
  8
レイヤー_1
 62
     7
100
AcDbVertex
100
AcDb2dVertex
 10
100.0197771729114
 20
173.5903754318711
 30
0.0
  0
VERTEX
  5
C97
330
C95
100
AcDbEntity
  8
レイヤー_1
 62
     7
100
AcDbVertex
100
AcDb2dVertex
 10
100.4218191729114
 20
173.6327504318711
 30
0.0
  0
VERTEX
  5
C98
330
C95
100
AcDbEntity
  8
レイヤー_1
 62
     7
100
AcDbVertex
100
AcDb2dVertex
 10
100.7818321729114
 20
173.7598744318711
 30
0.0
  0
VERTEX
  5
C99
330
C95
100
AcDbEntity
  8
レイヤー_1
 62
     7
100
AcDbVertex
100
AcDb2dVertex
 10
101.1415001729114
 20
173.9290284318711
 30
0.0
  0
VERTEX
  5
C9A
330
C95
100
AcDbEntity
  8
レイヤー_1
 62
     7
100
AcDbVertex
100
AcDb2dVertex
 10
101.4381231729114
 20
174.1832764318711
 30
0.0
  0
VERTEX
  5
C9B
330
C95
100
AcDbEntity
  8
レイヤー_1
 62
     7
100
AcDbVertex
100
AcDb2dVertex
 10
101.6920261729114
 20
174.4795544318711
 30
0.0
  0
VERTEX
  5
C9C
330
C95
100
AcDbEntity
  8
レイヤー_1
 62
     7
100
AcDbVertex
100
AcDb2dVertex
 10
101.8825401729114
 20
174.8392224318711
 30
0.0
  0
VERTEX
  5
C9D
330
C95
100
AcDbEntity
  8
レイヤー_1
 62
     7
100
AcDbVertex
100
AcDb2dVertex
 10
101.9883041729114
 20
175.2202504318711
 30
0.0
  0
VERTEX
  5
C9E
330
C95
100
AcDbEntity
  8
レイヤー_1
 62
     7
100
AcDbVertex
100
AcDb2dVertex
 10
102.0306791729114
 20
175.6012774318711
 30
0.0
  0
VERTEX
  5
C9F
330
C95
100
AcDbEntity
  8
レイヤー_1
 62
     7
100
AcDbVertex
100
AcDb2dVertex
 10
101.9883041729114
 20
175.9823054318711
 30
0.0
  0
VERTEX
  5
CA0
330
C95
100
AcDbEntity
  8
レイヤー_1
 62
     7
100
AcDbVertex
100
AcDb2dVertex
 10
101.8825401729114
 20
176.3633334318711
 30
0.0
  0
VERTEX
  5
CA1
330
C95
100
AcDbEntity
  8
レイヤー_1
 62
     7
100
AcDbVertex
100
AcDb2dVertex
 10
101.6920261729114
 20
176.7019854318711
 30
0.0
  0
VERTEX
  5
CA2
330
C95
100
AcDbEntity
  8
レイヤー_1
 62
     7
100
AcDbVertex
100
AcDb2dVertex
 10
101.4381231729114
 20
177.0196234318711
 30
0.0
  0
VERTEX
  5
CA3
330
C95
100
AcDbEntity
  8
レイヤー_1
 62
     7
100
AcDbVertex
100
AcDb2dVertex
 10
101.1415001729114
 20
177.2735274318711
 30
0.0
  0
VERTEX
  5
CA4
330
C95
100
AcDbEntity
  8
レイヤー_1
 62
     7
100
AcDbVertex
100
AcDb2dVertex
 10
100.7818321729114
 20
177.4426814318711
 30
0.0
  0
VERTEX
  5
CA5
330
C95
100
AcDbEntity
  8
レイヤー_1
 62
     7
100
AcDbVertex
100
AcDb2dVertex
 10
100.4218191729114
 20
177.5698054318711
 30
0.0
  0
VERTEX
  5
CA6
330
C95
100
AcDbEntity
  8
レイヤー_1
 62
     7
100
AcDbVertex
100
AcDb2dVertex
 10
100.0197771729114
 20
177.5908204318711
 30
0.0
  0
SEQEND
  5
CA7
330
C95
100
AcDbEntity
  8
レイヤー_1
 62
     7
  0
POLYLINE
  5
CA8
330
75
100
AcDbEntity
  8
レイヤー_1
 62
     7
100
AcDb2dPolyline
 66
     1
 10
0.0
 20
0.0
 30
0.0
  0
VERTEX
  5
CA9
330
CA8
100
AcDbEntity
  8
レイヤー_1
 62
     7
100
AcDbVertex
100
AcDb2dVertex
 10
97.03529017291145
 20
218.1039374318711
 30
0.0
  0
VERTEX
  5
CAA
330
CA8
100
AcDbEntity
  8
レイヤー_1
 62
     7
100
AcDbVertex
100
AcDb2dVertex
 10
97.05630617291145
 20
217.9134234318711
 30
0.0
  0
VERTEX
  5
CAB
330
CA8
100
AcDbEntity
  8
レイヤー_1
 62
     7
100
AcDbVertex
100
AcDb2dVertex
 10
97.16241517291146
 20
217.7440974318711
 30
0.0
  0
VERTEX
  5
CAC
330
CA8
100
AcDbEntity
  8
レイヤー_1
 62
     7
100
AcDbVertex
100
AcDb2dVertex
 10
97.33156917291147
 20
217.6383334318712
 30
0.0
  0
VERTEX
  5
CAD
330
CA8
100
AcDbEntity
  8
レイヤー_1
 62
     7
100
AcDbVertex
100
AcDb2dVertex
 10
97.52208217291146
 20
217.5959584318711
 30
0.0
  0
SEQEND
  5
CAE
330
CA8
100
AcDbEntity
  8
レイヤー_1
 62
     7
  0
LINE
  5
CAF
102
{ACAD_REACTORS
330
1076
102
}
330
75
100
AcDbEntity
  8
レイヤー_1
 62
     7
100
AcDbLine
 10
100.0197771729114
 20
217.5959584318711
 30
0.0
 11
97.52208217291146
 21
217.5959584318711
 31
0.0
  0
LINE
  5
CB0
330
75
100
AcDbEntity
  8
レイヤー_1
 62
     7
100
AcDbLine
 10
100.0197771729114
 20
213.5955134318711
 30
0.0
 11
97.52208217291146
 21
213.5955134318711
 31
0.0
  0
POLYLINE
  5
CB1
330
75
100
AcDbEntity
  8
レイヤー_1
 62
     7
100
AcDb2dPolyline
 66
     1
 10
0.0
 20
0.0
 30
0.0
  0
VERTEX
  5
CB2
330
CB1
100
AcDbEntity
  8
レイヤー_1
 62
     7
100
AcDbVertex
100
AcDb2dVertex
 10
100.0197771729114
 20
213.5955134318711
 30
0.0
  0
VERTEX
  5
CB3
330
CB1
100
AcDbEntity
  8
レイヤー_1
 62
     7
100
AcDbVertex
100
AcDb2dVertex
 10
100.4218191729114
 20
213.6378884318711
 30
0.0
  0
VERTEX
  5
CB4
330
CB1
100
AcDbEntity
  8
レイヤー_1
 62
     7
100
AcDbVertex
100
AcDb2dVertex
 10
100.7818321729114
 20
213.7436524318712
 30
0.0
  0
VERTEX
  5
CB5
330
CB1
100
AcDbEntity
  8
レイヤー_1
 62
     7
100
AcDbVertex
100
AcDb2dVertex
 10
101.1415001729114
 20
213.9341664318711
 30
0.0
  0
VERTEX
  5
CB6
330
CB1
100
AcDbEntity
  8
レイヤー_1
 62
     7
100
AcDbVertex
100
AcDb2dVertex
 10
101.4381231729114
 20
214.1880694318711
 30
0.0
  0
VERTEX
  5
CB7
330
CB1
100
AcDbEntity
  8
レイヤー_1
 62
     7
100
AcDbVertex
100
AcDb2dVertex
 10
101.6920261729114
 20
214.4845204318711
 30
0.0
  0
VERTEX
  5
CB8
330
CB1
100
AcDbEntity
  8
レイヤー_1
 62
     7
100
AcDbVertex
100
AcDb2dVertex
 10
101.8825401729114
 20
214.8443604318712
 30
0.0
  0
VERTEX
  5
CB9
330
CB1
100
AcDbEntity
  8
レイヤー_1
 62
     7
100
AcDbVertex
100
AcDb2dVertex
 10
101.9883041729114
 20
215.2042004318712
 30
0.0
  0
VERTEX
  5
CBA
330
CB1
100
AcDbEntity
  8
レイヤー_1
 62
     7
100
AcDbVertex
100
AcDb2dVertex
 10
102.0306791729114
 20
215.6062434318711
 30
0.0
  0
VERTEX
  5
CBB
330
CB1
100
AcDbEntity
  8
レイヤー_1
 62
     7
100
AcDbVertex
100
AcDb2dVertex
 10
101.9883041729114
 20
215.9872714318711
 30
0.0
  0
VERTEX
  5
CBC
330
CB1
100
AcDbEntity
  8
レイヤー_1
 62
     7
100
AcDbVertex
100
AcDb2dVertex
 10
101.8825401729114
 20
216.3682984318711
 30
0.0
  0
VERTEX
  5
CBD
330
CB1
100
AcDbEntity
  8
レイヤー_1
 62
     7
100
AcDbVertex
100
AcDb2dVertex
 10
101.6920261729114
 20
216.7069514318711
 30
0.0
  0
VERTEX
  5
CBE
330
CB1
100
AcDbEntity
  8
レイヤー_1
 62
     7
100
AcDbVertex
100
AcDb2dVertex
 10
101.4381231729114
 20
217.0244174318711
 30
0.0
  0
VERTEX
  5
CBF
330
CB1
100
AcDbEntity
  8
レイヤー_1
 62
     7
100
AcDbVertex
100
AcDb2dVertex
 10
101.1415001729114
 20
217.2573054318711
 30
0.0
  0
VERTEX
  5
CC0
330
CB1
100
AcDbEntity
  8
レイヤー_1
 62
     7
100
AcDbVertex
100
AcDb2dVertex
 10
100.7818321729114
 20
217.4478194318711
 30
0.0
  0
VERTEX
  5
CC1
330
CB1
100
AcDbEntity
  8
レイヤー_1
 62
     7
100
AcDbVertex
100
AcDb2dVertex
 10
100.4218191729114
 20
217.5535834318711
 30
0.0
  0
VERTEX
  5
CC2
330
CB1
100
AcDbEntity
  8
レイヤー_1
 62
     7
100
AcDbVertex
100
AcDb2dVertex
 10
100.0197771729114
 20
217.5959584318711
 30
0.0
  0
SEQEND
  5
CC3
330
CB1
100
AcDbEntity
  8
レイヤー_1
 62
     7
  0
LINE
  5
CC4
330
75
100
AcDbEntity
  8
レイヤー_1
 62
     7
100
AcDbLine
 10
160.0271391729114
 20
177.5908204318711
 30
0.0
 11
162.5248331729114
 21
177.5908204318711
 31
0.0
  0
POLYLINE
  5
CC5
330
75
100
AcDbEntity
  8
レイヤー_1
 62
     7
100
AcDb2dPolyline
 66
     1
 10
0.0
 20
0.0
 30
0.0
  0
VERTEX
  5
CC6
330
CC5
100
AcDbEntity
  8
レイヤー_1
 62
     7
100
AcDbVertex
100
AcDb2dVertex
 10
160.0271391729114
 20
177.5908204318711
 30
0.0
  0
VERTEX
  5
CC7
330
CC5
100
AcDbEntity
  8
レイヤー_1
 62
     7
100
AcDbVertex
100
AcDb2dVertex
 10
159.6250961729114
 20
177.5698054318711
 30
0.0
  0
VERTEX
  5
CC8
330
CC5
100
AcDbEntity
  8
レイヤー_1
 62
     7
100
AcDbVertex
100
AcDb2dVertex
 10
159.2440691729114
 20
177.4426814318711
 30
0.0
  0
VERTEX
  5
CC9
330
CC5
100
AcDbEntity
  8
レイヤー_1
 62
     7
100
AcDbVertex
100
AcDb2dVertex
 10
158.9054161729114
 20
177.2735274318711
 30
0.0
  0
VERTEX
  5
CCA
330
CC5
100
AcDbEntity
  8
レイヤー_1
 62
     7
100
AcDbVertex
100
AcDb2dVertex
 10
158.6091381729114
 20
177.0196234318711
 30
0.0
  0
VERTEX
  5
CCB
330
CC5
100
AcDbEntity
  8
レイヤー_1
 62
     7
100
AcDbVertex
100
AcDb2dVertex
 10
158.3552341729114
 20
176.7019854318711
 30
0.0
  0
VERTEX
  5
CCC
330
CC5
100
AcDbEntity
  8
レイヤー_1
 62
     7
100
AcDbVertex
100
AcDb2dVertex
 10
158.1647201729114
 20
176.3633334318711
 30
0.0
  0
VERTEX
  5
CCD
330
CC5
100
AcDbEntity
  8
レイヤー_1
 62
     7
100
AcDbVertex
100
AcDb2dVertex
 10
158.0589561729114
 20
175.9823054318711
 30
0.0
  0
VERTEX
  5
CCE
330
CC5
100
AcDbEntity
  8
レイヤー_1
 62
     7
100
AcDbVertex
100
AcDb2dVertex
 10
158.0165811729114
 20
175.6012774318711
 30
0.0
  0
VERTEX
  5
CCF
330
CC5
100
AcDbEntity
  8
レイヤー_1
 62
     7
100
AcDbVertex
100
AcDb2dVertex
 10
158.0589561729114
 20
175.2202504318711
 30
0.0
  0
VERTEX
  5
CD0
330
CC5
100
AcDbEntity
  8
レイヤー_1
 62
     7
100
AcDbVertex
100
AcDb2dVertex
 10
158.1647201729114
 20
174.8392224318711
 30
0.0
  0
VERTEX
  5
CD1
330
CC5
100
AcDbEntity
  8
レイヤー_1
 62
     7
100
AcDbVertex
100
AcDb2dVertex
 10
158.3552341729114
 20
174.4795544318711
 30
0.0
  0
VERTEX
  5
CD2
330
CC5
100
AcDbEntity
  8
レイヤー_1
 62
     7
100
AcDbVertex
100
AcDb2dVertex
 10
158.6091381729114
 20
174.1832764318711
 30
0.0
  0
VERTEX
  5
CD3
330
CC5
100
AcDbEntity
  8
レイヤー_1
 62
     7
100
AcDbVertex
100
AcDb2dVertex
 10
158.9054161729114
 20
173.9290284318711
 30
0.0
  0
VERTEX
  5
CD4
330
CC5
100
AcDbEntity
  8
レイヤー_1
 62
     7
100
AcDbVertex
100
AcDb2dVertex
 10
159.2440691729114
 20
173.7598744318711
 30
0.0
  0
VERTEX
  5
CD5
330
CC5
100
AcDbEntity
  8
レイヤー_1
 62
     7
100
AcDbVertex
100
AcDb2dVertex
 10
159.6250961729114
 20
173.6327504318711
 30
0.0
  0
VERTEX
  5
CD6
330
CC5
100
AcDbEntity
  8
レイヤー_1
 62
     7
100
AcDbVertex
100
AcDb2dVertex
 10
160.0271391729114
 20
173.5903754318711
 30
0.0
  0
VERTEX
  5
CD7
330
CC5
100
AcDbEntity
  8
レイヤー_1
 62
     7
100
AcDbVertex
100
AcDb2dVertex
 10
162.5248331729114
 20
173.5903754318711
 30
0.0
  0
SEQEND
  5
CD8
330
CC5
100
AcDbEntity
  8
レイヤー_1
 62
     7
  0
POLYLINE
  5
CD9
330
75
100
AcDbEntity
  8
レイヤー_1
 62
     7
100
AcDb2dPolyline
 66
     1
 10
0.0
 20
0.0
 30
0.0
  0
VERTEX
  5
CDA
330
CD9
100
AcDbEntity
  8
レイヤー_1
 62
     7
100
AcDbVertex
100
AcDb2dVertex
 10
160.0271391729114
 20
217.5959584318711
 30
0.0
  0
VERTEX
  5
CDB
330
CD9
100
AcDbEntity
  8
レイヤー_1
 62
     7
100
AcDbVertex
100
AcDb2dVertex
 10
162.5248331729114
 20
217.5959584318711
 30
0.0
  0
VERTEX
  5
CDC
330
CD9
100
AcDbEntity
  8
レイヤー_1
 62
     7
100
AcDbVertex
100
AcDb2dVertex
 10
162.7153471729114
 20
217.6383334318712
 30
0.0
  0
VERTEX
  5
CDD
330
CD9
100
AcDbEntity
  8
レイヤー_1
 62
     7
100
AcDbVertex
100
AcDb2dVertex
 10
162.8634861729114
 20
217.7440974318711
 30
0.0
  0
VERTEX
  5
CDE
330
CD9
100
AcDbEntity
  8
レイヤー_1
 62
     7
100
AcDbVertex
100
AcDb2dVertex
 10
162.9906101729114
 20
217.9134234318711
 30
0.0
  0
VERTEX
  5
CDF
330
CD9
100
AcDbEntity
  8
レイヤー_1
 62
     7
100
AcDbVertex
100
AcDb2dVertex
 10
163.0116251729114
 20
218.1039374318711
 30
0.0
  0
SEQEND
  5
CE0
330
CD9
100
AcDbEntity
  8
レイヤー_1
 62
     7
  0
POLYLINE
  5
CE1
330
75
100
AcDbEntity
  8
レイヤー_1
 62
     7
100
AcDb2dPolyline
 66
     1
 10
0.0
 20
0.0
 30
0.0
  0
VERTEX
  5
CE2
330
CE1
100
AcDbEntity
  8
レイヤー_1
 62
     7
100
AcDbVertex
100
AcDb2dVertex
 10
163.0116251729114
 20
213.1087214318712
 30
0.0
  0
VERTEX
  5
CE3
330
CE1
100
AcDbEntity
  8
レイヤー_1
 62
     7
100
AcDbVertex
100
AcDb2dVertex
 10
162.9906101729114
 20
213.2990634318711
 30
0.0
  0
VERTEX
  5
CE4
330
CE1
100
AcDbEntity
  8
レイヤー_1
 62
     7
100
AcDbVertex
100
AcDb2dVertex
 10
162.8634861729114
 20
213.4473744318711
 30
0.0
  0
VERTEX
  5
CE5
330
CE1
100
AcDbEntity
  8
レイヤー_1
 62
     7
100
AcDbVertex
100
AcDb2dVertex
 10
162.7153471729114
 20
213.5531384318711
 30
0.0
  0
VERTEX
  5
CE6
330
CE1
100
AcDbEntity
  8
レイヤー_1
 62
     7
100
AcDbVertex
100
AcDb2dVertex
 10
162.5248331729114
 20
213.5955134318711
 30
0.0
  0
SEQEND
  5
CE7
330
CE1
100
AcDbEntity
  8
レイヤー_1
 62
     7
  0
POLYLINE
  5
CE8
330
75
100
AcDbEntity
  8
レイヤー_1
 62
     7
100
AcDb2dPolyline
 66
     1
 10
0.0
 20
0.0
 30
0.0
  0
VERTEX
  5
CE9
330
CE8
100
AcDbEntity
  8
レイヤー_1
 62
     7
100
AcDbVertex
100
AcDb2dVertex
 10
160.0271391729114
 20
217.5959584318711
 30
0.0
  0
VERTEX
  5
CEA
330
CE8
100
AcDbEntity
  8
レイヤー_1
 62
     7
100
AcDbVertex
100
AcDb2dVertex
 10
159.6250961729114
 20
217.5535834318711
 30
0.0
  0
VERTEX
  5
CEB
330
CE8
100
AcDbEntity
  8
レイヤー_1
 62
     7
100
AcDbVertex
100
AcDb2dVertex
 10
159.2440691729114
 20
217.4478194318711
 30
0.0
  0
VERTEX
  5
CEC
330
CE8
100
AcDbEntity
  8
レイヤー_1
 62
     7
100
AcDbVertex
100
AcDb2dVertex
 10
158.9054161729114
 20
217.2573054318711
 30
0.0
  0
VERTEX
  5
CED
330
CE8
100
AcDbEntity
  8
レイヤー_1
 62
     7
100
AcDbVertex
100
AcDb2dVertex
 10
158.6091381729114
 20
217.0244174318711
 30
0.0
  0
VERTEX
  5
CEE
330
CE8
100
AcDbEntity
  8
レイヤー_1
 62
     7
100
AcDbVertex
100
AcDb2dVertex
 10
158.3552341729114
 20
216.7069514318711
 30
0.0
  0
VERTEX
  5
CEF
330
CE8
100
AcDbEntity
  8
レイヤー_1
 62
     7
100
AcDbVertex
100
AcDb2dVertex
 10
158.1647201729114
 20
216.3682984318711
 30
0.0
  0
VERTEX
  5
CF0
330
CE8
100
AcDbEntity
  8
レイヤー_1
 62
     7
100
AcDbVertex
100
AcDb2dVertex
 10
158.0589561729114
 20
215.9872714318711
 30
0.0
  0
VERTEX
  5
CF1
330
CE8
100
AcDbEntity
  8
レイヤー_1
 62
     7
100
AcDbVertex
100
AcDb2dVertex
 10
158.0165811729114
 20
215.6062434318711
 30
0.0
  0
VERTEX
  5
CF2
330
CE8
100
AcDbEntity
  8
レイヤー_1
 62
     7
100
AcDbVertex
100
AcDb2dVertex
 10
158.0589561729114
 20
215.2042004318712
 30
0.0
  0
VERTEX
  5
CF3
330
CE8
100
AcDbEntity
  8
レイヤー_1
 62
     7
100
AcDbVertex
100
AcDb2dVertex
 10
158.1647201729114
 20
214.8443604318712
 30
0.0
  0
VERTEX
  5
CF4
330
CE8
100
AcDbEntity
  8
レイヤー_1
 62
     7
100
AcDbVertex
100
AcDb2dVertex
 10
158.3552341729114
 20
214.4845204318711
 30
0.0
  0
VERTEX
  5
CF5
330
CE8
100
AcDbEntity
  8
レイヤー_1
 62
     7
100
AcDbVertex
100
AcDb2dVertex
 10
158.6091381729114
 20
214.1880694318711
 30
0.0
  0
VERTEX
  5
CF6
330
CE8
100
AcDbEntity
  8
レイヤー_1
 62
     7
100
AcDbVertex
100
AcDb2dVertex
 10
158.9054161729114
 20
213.9341664318711
 30
0.0
  0
VERTEX
  5
CF7
330
CE8
100
AcDbEntity
  8
レイヤー_1
 62
     7
100
AcDbVertex
100
AcDb2dVertex
 10
159.2440691729114
 20
213.7436524318712
 30
0.0
  0
VERTEX
  5
CF8
330
CE8
100
AcDbEntity
  8
レイヤー_1
 62
     7
100
AcDbVertex
100
AcDb2dVertex
 10
159.6250961729114
 20
213.6378884318711
 30
0.0
  0
VERTEX
  5
CF9
330
CE8
100
AcDbEntity
  8
レイヤー_1
 62
     7
100
AcDbVertex
100
AcDb2dVertex
 10
160.0271391729114
 20
213.5955134318711
 30
0.0
  0
VERTEX
  5
CFA
330
CE8
100
AcDbEntity
  8
レイヤー_1
 62
     7
100
AcDbVertex
100
AcDb2dVertex
 10
162.5248331729114
 20
213.5955134318711
 30
0.0
  0
SEQEND
  5
CFB
330
CE8
100
AcDbEntity
  8
レイヤー_1
 62
     7
  0
LINE
  5
D14
330
75
100
AcDbEntity
  8
レイヤー_1
 62
     7
100
AcDbLine
 10
96.01933217291145
 20
87.27299143187114
 30
0.0
 11
81.68945717291144
 21
87.27299143187114
 31
0.0
  0
LINE
  5
D34
330
75
100
AcDbEntity
  8
レイヤー_1
 62
     7
100
AcDbLine
 10
156.0266941729115
 20
159.3452504318711
 30
0.0
 11
156.0266941729115
 21
127.4047364318711
 31
0.0
  0
LINE
  5
D35
330
75
100
AcDbEntity
  8
レイヤー_1
 62
     7
100
AcDbLine
 10
163.0116251729114
 20
172.5957764318711
 30
0.0
 11
163.0116251729114
 21
127.4047364318711
 31
0.0
  0
POLYLINE
  5
D6B
330
75
100
AcDbEntity
  8
レイヤー_1
 62
     7
100
AcDb2dPolyline
 66
     1
 10
0.0
 20
0.0
 30
0.0
 70
     1
  0
VERTEX
  5
D6C
330
D6B
100
AcDbEntity
  8
レイヤー_1
 62
     7
100
AcDbVertex
100
AcDb2dVertex
 10
49.15638717291145
 20
219.0988814318711
 30
0.0
  0
VERTEX
  5
D6D
330
D6B
100
AcDbEntity
  8
レイヤー_1
 62
     7
100
AcDbVertex
100
AcDb2dVertex
 10
49.47402517291145
 20
219.1410834318712
 30
0.0
  0
VERTEX
  5
D6E
330
D6B
100
AcDbEntity
  8
レイヤー_1
 62
     7
100
AcDbVertex
100
AcDb2dVertex
 10
49.79131817291145
 20
219.2470204318711
 30
0.0
  0
VERTEX
  5
D6F
330
D6B
100
AcDbEntity
  8
レイヤー_1
 62
     7
100
AcDbVertex
100
AcDb2dVertex
 10
50.08759617291145
 20
219.4375344318711
 30
0.0
  0
VERTEX
  5
D70
330
D6B
100
AcDbEntity
  8
レイヤー_1
 62
     7
100
AcDbVertex
100
AcDb2dVertex
 10
50.32048517291145
 20
219.6702504318711
 30
0.0
  0
VERTEX
  5
D71
330
D6B
100
AcDbEntity
  8
レイヤー_1
 62
     7
100
AcDbVertex
100
AcDb2dVertex
 10
50.48963917291146
 20
219.9455134318711
 30
0.0
  0
VERTEX
  5
D72
330
D6B
100
AcDbEntity
  8
レイヤー_1
 62
     7
100
AcDbVertex
100
AcDb2dVertex
 10
50.61676317291145
 20
220.2629794318712
 30
0.0
  0
VERTEX
  5
D73
330
D6B
100
AcDbEntity
  8
レイヤー_1
 62
     7
100
AcDbVertex
100
AcDb2dVertex
 10
50.63777817291146
 20
220.6016314318711
 30
0.0
  0
VERTEX
  5
D74
330
D6B
100
AcDbEntity
  8
レイヤー_1
 62
     7
100
AcDbVertex
100
AcDb2dVertex
 10
50.61676317291145
 20
220.9402844318711
 30
0.0
  0
VERTEX
  5
D75
330
D6B
100
AcDbEntity
  8
レイヤー_1
 62
     7
100
AcDbVertex
100
AcDb2dVertex
 10
50.48963917291146
 20
221.2577504318711
 30
0.0
  0
VERTEX
  5
D76
330
D6B
100
AcDbEntity
  8
レイヤー_1
 62
     7
100
AcDbVertex
100
AcDb2dVertex
 10
50.32048517291145
 20
221.5330134318711
 30
0.0
  0
VERTEX
  5
D77
330
D6B
100
AcDbEntity
  8
レイヤー_1
 62
     7
100
AcDbVertex
100
AcDb2dVertex
 10
50.08759617291145
 20
221.7657294318712
 30
0.0
  0
VERTEX
  5
D78
330
D6B
100
AcDbEntity
  8
レイヤー_1
 62
     7
100
AcDbVertex
100
AcDb2dVertex
 10
49.79131817291145
 20
221.9562434318711
 30
0.0
  0
VERTEX
  5
D79
330
D6B
100
AcDbEntity
  8
レイヤー_1
 62
     7
100
AcDbVertex
100
AcDb2dVertex
 10
49.47402517291145
 20
222.0621804318711
 30
0.0
  0
VERTEX
  5
D7A
330
D6B
100
AcDbEntity
  8
レイヤー_1
 62
     7
100
AcDbVertex
100
AcDb2dVertex
 10
49.15638717291145
 20
222.1045544318712
 30
0.0
  0
VERTEX
  5
D7B
330
D6B
100
AcDbEntity
  8
レイヤー_1
 62
     7
100
AcDbVertex
100
AcDb2dVertex
 10
48.81739017291145
 20
222.0621804318711
 30
0.0
  0
VERTEX
  5
D7C
330
D6B
100
AcDbEntity
  8
レイヤー_1
 62
     7
100
AcDbVertex
100
AcDb2dVertex
 10
48.50009617291146
 20
221.9562434318711
 30
0.0
  0
VERTEX
  5
D7D
330
D6B
100
AcDbEntity
  8
レイヤー_1
 62
     7
100
AcDbVertex
100
AcDb2dVertex
 10
48.20381817291146
 20
221.7657294318712
 30
0.0
  0
VERTEX
  5
D7E
330
D6B
100
AcDbEntity
  8
レイヤー_1
 62
     7
100
AcDbVertex
100
AcDb2dVertex
 10
47.97093017291145
 20
221.5330134318711
 30
0.0
  0
VERTEX
  5
D7F
330
D6B
100
AcDbEntity
  8
レイヤー_1
 62
     7
100
AcDbVertex
100
AcDb2dVertex
 10
47.80177517291146
 20
221.2577504318711
 30
0.0
  0
VERTEX
  5
D80
330
D6B
100
AcDbEntity
  8
レイヤー_1
 62
     7
100
AcDbVertex
100
AcDb2dVertex
 10
47.67465117291146
 20
220.9402844318711
 30
0.0
  0
VERTEX
  5
D81
330
D6B
100
AcDbEntity
  8
レイヤー_1
 62
     7
100
AcDbVertex
100
AcDb2dVertex
 10
47.65363617291145
 20
220.6016314318711
 30
0.0
  0
VERTEX
  5
D82
330
D6B
100
AcDbEntity
  8
レイヤー_1
 62
     7
100
AcDbVertex
100
AcDb2dVertex
 10
47.67465117291146
 20
220.2629794318712
 30
0.0
  0
VERTEX
  5
D83
330
D6B
100
AcDbEntity
  8
レイヤー_1
 62
     7
100
AcDbVertex
100
AcDb2dVertex
 10
47.80177517291146
 20
219.9455134318711
 30
0.0
  0
VERTEX
  5
D84
330
D6B
100
AcDbEntity
  8
レイヤー_1
 62
     7
100
AcDbVertex
100
AcDb2dVertex
 10
47.97093017291145
 20
219.6702504318711
 30
0.0
  0
VERTEX
  5
D85
330
D6B
100
AcDbEntity
  8
レイヤー_1
 62
     7
100
AcDbVertex
100
AcDb2dVertex
 10
48.20381817291146
 20
219.4375344318711
 30
0.0
  0
VERTEX
  5
D86
330
D6B
100
AcDbEntity
  8
レイヤー_1
 62
     7
100
AcDbVertex
100
AcDb2dVertex
 10
48.50009617291146
 20
219.2470204318711
 30
0.0
  0
VERTEX
  5
D87
330
D6B
100
AcDbEntity
  8
レイヤー_1
 62
     7
100
AcDbVertex
100
AcDb2dVertex
 10
48.81739017291145
 20
219.1410834318712
 30
0.0
  0
SEQEND
  5
D88
330
D6B
100
AcDbEntity
  8
レイヤー_1
 62
     7
  0
POLYLINE
  5
D89
330
75
100
AcDbEntity
  8
レイヤー_1
 62
     7
100
AcDb2dPolyline
 66
     1
 10
0.0
 20
0.0
 30
0.0
 70
     1
  0
VERTEX
  5
D8A
330
D89
100
AcDbEntity
  8
レイヤー_1
 62
     7
100
AcDbVertex
100
AcDb2dVertex
 10
49.15638717291145
 20
169.1031384318711
 30
0.0
  0
VERTEX
  5
D8B
330
D89
100
AcDbEntity
  8
レイヤー_1
 62
     7
100
AcDbVertex
100
AcDb2dVertex
 10
49.47402517291145
 20
169.1455134318711
 30
0.0
  0
VERTEX
  5
D8C
330
D89
100
AcDbEntity
  8
レイヤー_1
 62
     7
100
AcDbVertex
100
AcDb2dVertex
 10
49.79131817291145
 20
169.2512774318711
 30
0.0
  0
VERTEX
  5
D8D
330
D89
100
AcDbEntity
  8
レイヤー_1
 62
     7
100
AcDbVertex
100
AcDb2dVertex
 10
50.08759617291145
 20
169.4207764318711
 30
0.0
  0
VERTEX
  5
D8E
330
D89
100
AcDbEntity
  8
レイヤー_1
 62
     7
100
AcDbVertex
100
AcDb2dVertex
 10
50.32048517291145
 20
169.6746804318711
 30
0.0
  0
VERTEX
  5
D8F
330
D89
100
AcDbEntity
  8
レイヤー_1
 62
     7
100
AcDbVertex
100
AcDb2dVertex
 10
50.48963917291146
 20
169.9499434318711
 30
0.0
  0
VERTEX
  5
D90
330
D89
100
AcDbEntity
  8
レイヤー_1
 62
     7
100
AcDbVertex
100
AcDb2dVertex
 10
50.61676317291145
 20
170.2672364318711
 30
0.0
  0
VERTEX
  5
D91
330
D89
100
AcDbEntity
  8
レイヤー_1
 62
     7
100
AcDbVertex
100
AcDb2dVertex
 10
50.63777817291146
 20
170.6058894318711
 30
0.0
  0
VERTEX
  5
D92
330
D89
100
AcDbEntity
  8
レイヤー_1
 62
     7
100
AcDbVertex
100
AcDb2dVertex
 10
50.61676317291145
 20
170.9445424318711
 30
0.0
  0
VERTEX
  5
D93
330
D89
100
AcDbEntity
  8
レイヤー_1
 62
     7
100
AcDbVertex
100
AcDb2dVertex
 10
50.48963917291146
 20
171.2621804318711
 30
0.0
  0
VERTEX
  5
D94
330
D89
100
AcDbEntity
  8
レイヤー_1
 62
     7
100
AcDbVertex
100
AcDb2dVertex
 10
50.32048517291145
 20
171.5374434318711
 30
0.0
  0
VERTEX
  5
D95
330
D89
100
AcDbEntity
  8
レイヤー_1
 62
     7
100
AcDbVertex
100
AcDb2dVertex
 10
50.08759617291145
 20
171.7699874318711
 30
0.0
  0
VERTEX
  5
D96
330
D89
100
AcDbEntity
  8
レイヤー_1
 62
     7
100
AcDbVertex
100
AcDb2dVertex
 10
49.79131817291145
 20
171.9605014318711
 30
0.0
  0
VERTEX
  5
D97
330
D89
100
AcDbEntity
  8
レイヤー_1
 62
     7
100
AcDbVertex
100
AcDb2dVertex
 10
49.47402517291145
 20
172.0666094318711
 30
0.0
  0
VERTEX
  5
D98
330
D89
100
AcDbEntity
  8
レイヤー_1
 62
     7
100
AcDbVertex
100
AcDb2dVertex
 10
49.15638717291145
 20
172.1086404318711
 30
0.0
  0
VERTEX
  5
D99
330
D89
100
AcDbEntity
  8
レイヤー_1
 62
     7
100
AcDbVertex
100
AcDb2dVertex
 10
48.81739017291145
 20
172.0666094318711
 30
0.0
  0
VERTEX
  5
D9A
330
D89
100
AcDbEntity
  8
レイヤー_1
 62
     7
100
AcDbVertex
100
AcDb2dVertex
 10
48.50009617291146
 20
171.9605014318711
 30
0.0
  0
VERTEX
  5
D9B
330
D89
100
AcDbEntity
  8
レイヤー_1
 62
     7
100
AcDbVertex
100
AcDb2dVertex
 10
48.20381817291146
 20
171.7699874318711
 30
0.0
  0
VERTEX
  5
D9C
330
D89
100
AcDbEntity
  8
レイヤー_1
 62
     7
100
AcDbVertex
100
AcDb2dVertex
 10
47.97093017291145
 20
171.5374434318711
 30
0.0
  0
VERTEX
  5
D9D
330
D89
100
AcDbEntity
  8
レイヤー_1
 62
     7
100
AcDbVertex
100
AcDb2dVertex
 10
47.80177517291146
 20
171.2621804318711
 30
0.0
  0
VERTEX
  5
D9E
330
D89
100
AcDbEntity
  8
レイヤー_1
 62
     7
100
AcDbVertex
100
AcDb2dVertex
 10
47.67465117291146
 20
170.9445424318711
 30
0.0
  0
VERTEX
  5
D9F
330
D89
100
AcDbEntity
  8
レイヤー_1
 62
     7
100
AcDbVertex
100
AcDb2dVertex
 10
47.65363617291145
 20
170.6058894318711
 30
0.0
  0
VERTEX
  5
DA0
330
D89
100
AcDbEntity
  8
レイヤー_1
 62
     7
100
AcDbVertex
100
AcDb2dVertex
 10
47.67465117291146
 20
170.2672364318711
 30
0.0
  0
VERTEX
  5
DA1
330
D89
100
AcDbEntity
  8
レイヤー_1
 62
     7
100
AcDbVertex
100
AcDb2dVertex
 10
47.80177517291146
 20
169.9499434318711
 30
0.0
  0
VERTEX
  5
DA2
330
D89
100
AcDbEntity
  8
レイヤー_1
 62
     7
100
AcDbVertex
100
AcDb2dVertex
 10
47.97093017291145
 20
169.6746804318711
 30
0.0
  0
VERTEX
  5
DA3
330
D89
100
AcDbEntity
  8
レイヤー_1
 62
     7
100
AcDbVertex
100
AcDb2dVertex
 10
48.20381817291146
 20
169.4207764318711
 30
0.0
  0
VERTEX
  5
DA4
330
D89
100
AcDbEntity
  8
レイヤー_1
 62
     7
100
AcDbVertex
100
AcDb2dVertex
 10
48.50009617291146
 20
169.2512774318711
 30
0.0
  0
VERTEX
  5
DA5
330
D89
100
AcDbEntity
  8
レイヤー_1
 62
     7
100
AcDbVertex
100
AcDb2dVertex
 10
48.81739017291145
 20
169.1455134318711
 30
0.0
  0
SEQEND
  5
DA6
330
D89
100
AcDbEntity
  8
レイヤー_1
 62
     7
  0
LINE
  5
DA7
330
75
100
AcDbEntity
  8
レイヤー_1
 62
     7
100
AcDbLine
 10
37.15470817291146
 20
230.8463124318711
 30
0.0
 11
37.15470817291146
 21
160.3612094318711
 31
0.0
  0
POLYLINE
  5
DA8
102
{ACAD_REACTORS
330
EA8
102
}
330
75
100
AcDbEntity
  8
レイヤー_1
 62
     7
100
AcDb2dPolyline
 66
     1
 10
0.0
 20
0.0
 30
0.0
 70
     1
  0
VERTEX
  5
DA9
330
DA8
100
AcDbEntity
  8
レイヤー_1
 62
     7
100
AcDbVertex
100
AcDb2dVertex
 10
36.13874917291145
 20
230.8463124318711
 30
0.0
  0
VERTEX
  5
DAA
102
{ACAD_REACTORS
330
EA8
102
}
330
DA8
100
AcDbEntity
  8
レイヤー_1
 62
     7
100
AcDbVertex
100
AcDb2dVertex
 10
60.14176317291146
 20
230.8463124318711
 30
0.0
  0
VERTEX
  5
DAB
102
{ACAD_REACTORS
330
EA8
102
}
330
DA8
100
AcDbEntity
  8
レイヤー_1
 62
     7
100
AcDbVertex
100
AcDb2dVertex
 10
60.14176317291146
 20
160.3612094318711
 30
0.0
  0
VERTEX
  5
DAC
330
DA8
100
AcDbEntity
  8
レイヤー_1
 62
     7
100
AcDbVertex
100
AcDb2dVertex
 10
36.13874917291145
 20
160.3612094318711
 30
0.0
  0
SEQEND
  5
DAD
330
DA8
100
AcDbEntity
  8
レイヤー_1
 62
     7
  0
POLYLINE
  5
DAE
330
75
100
AcDbEntity
  8
レイヤー_1
 62
     7
100
AcDb2dPolyline
 66
     1
 10
0.0
 20
0.0
 30
0.0
 70
     1
  0
VERTEX
  5
DAF
330
DAE
100
AcDbEntity
  8
レイヤー_1
 62
     7
100
AcDbVertex
100
AcDb2dVertex
 10
130.0131231729114
 20
218.1039374318711
 30
0.0
  0
VERTEX
  5
DB0
330
DAE
100
AcDbEntity
  8
レイヤー_1
 62
     7
100
AcDbVertex
100
AcDb2dVertex
 10
130.5633041729114
 20
218.1463124318712
 30
0.0
  0
VERTEX
  5
DB1
330
DAE
100
AcDbEntity
  8
レイヤー_1
 62
     7
100
AcDbVertex
100
AcDb2dVertex
 10
131.1134861729114
 20
218.2732644318711
 30
0.0
  0
VERTEX
  5
DB2
330
DAE
100
AcDbEntity
  8
レイヤー_1
 62
     7
100
AcDbVertex
100
AcDb2dVertex
 10
131.6216381729114
 20
218.4849654318711
 30
0.0
  0
VERTEX
  5
DB3
330
DAE
100
AcDbEntity
  8
レイヤー_1
 62
     7
100
AcDbVertex
100
AcDb2dVertex
 10
132.0874151729114
 20
218.7600564318711
 30
0.0
  0
VERTEX
  5
DB4
330
DAE
100
AcDbEntity
  8
レイヤー_1
 62
     7
100
AcDbVertex
100
AcDb2dVertex
 10
132.4894571729114
 20
219.1198964318711
 30
0.0
  0
VERTEX
  5
DB5
330
DAE
100
AcDbEntity
  8
レイヤー_1
 62
     7
100
AcDbVertex
100
AcDb2dVertex
 10
132.8491251729114
 20
219.5432984318711
 30
0.0
  0
VERTEX
  5
DB6
330
DAE
100
AcDbEntity
  8
レイヤー_1
 62
     7
100
AcDbVertex
100
AcDb2dVertex
 10
133.1457481729114
 20
220.0089034318711
 30
0.0
  0
VERTEX
  5
DB7
330
DAE
100
AcDbEntity
  8
レイヤー_1
 62
     7
100
AcDbVertex
100
AcDb2dVertex
 10
133.3572771729114
 20
220.5170544318711
 30
0.0
  0
VERTEX
  5
DB8
330
DAE
100
AcDbEntity
  8
レイヤー_1
 62
     7
100
AcDbVertex
100
AcDb2dVertex
 10
133.4844011729114
 20
221.0462214318711
 30
0.0
  0
VERTEX
  5
DB9
330
DAE
100
AcDbEntity
  8
レイヤー_1
 62
     7
100
AcDbVertex
100
AcDb2dVertex
 10
133.5267751729114
 20
221.5964034318711
 30
0.0
  0
VERTEX
  5
DBA
330
DAE
100
AcDbEntity
  8
レイヤー_1
 62
     7
100
AcDbVertex
100
AcDb2dVertex
 10
133.4844011729114
 20
222.1467574318711
 30
0.0
  0
VERTEX
  5
DBB
330
DAE
100
AcDbEntity
  8
レイヤー_1
 62
     7
100
AcDbVertex
100
AcDb2dVertex
 10
133.3572771729114
 20
222.6759234318711
 30
0.0
  0
VERTEX
  5
DBC
330
DAE
100
AcDbEntity
  8
レイヤー_1
 62
     7
100
AcDbVertex
100
AcDb2dVertex
 10
133.1457481729114
 20
223.1839034318711
 30
0.0
  0
VERTEX
  5
DBD
330
DAE
100
AcDbEntity
  8
レイヤー_1
 62
     7
100
AcDbVertex
100
AcDb2dVertex
 10
132.8491251729114
 20
223.6496804318711
 30
0.0
  0
VERTEX
  5
DBE
330
DAE
100
AcDbEntity
  8
レイヤー_1
 62
     7
100
AcDbVertex
100
AcDb2dVertex
 10
132.4894571729114
 20
224.0729104318711
 30
0.0
  0
VERTEX
  5
DBF
330
DAE
100
AcDbEntity
  8
レイヤー_1
 62
     7
100
AcDbVertex
100
AcDb2dVertex
 10
132.0874151729114
 20
224.4327504318711
 30
0.0
  0
VERTEX
  5
DC0
330
DAE
100
AcDbEntity
  8
レイヤー_1
 62
     7
100
AcDbVertex
100
AcDb2dVertex
 10
131.6216381729114
 20
224.7292004318711
 30
0.0
  0
VERTEX
  5
DC1
330
DAE
100
AcDbEntity
  8
レイヤー_1
 62
     7
100
AcDbVertex
100
AcDb2dVertex
 10
131.1134861729114
 20
224.9195424318711
 30
0.0
  0
VERTEX
  5
DC2
330
DAE
100
AcDbEntity
  8
レイヤー_1
 62
     7
100
AcDbVertex
100
AcDb2dVertex
 10
130.5633041729114
 20
225.0678534318711
 30
0.0
  0
VERTEX
  5
DC3
330
DAE
100
AcDbEntity
  8
レイヤー_1
 62
     7
100
AcDbVertex
100
AcDb2dVertex
 10
130.0131231729114
 20
225.1100564318711
 30
0.0
  0
VERTEX
  5
DC4
330
DAE
100
AcDbEntity
  8
レイヤー_1
 62
     7
100
AcDbVertex
100
AcDb2dVertex
 10
129.4839561729114
 20
225.0678534318711
 30
0.0
  0
VERTEX
  5
DC5
330
DAE
100
AcDbEntity
  8
レイヤー_1
 62
     7
100
AcDbVertex
100
AcDb2dVertex
 10
128.9334301729114
 20
224.9195424318711
 30
0.0
  0
VERTEX
  5
DC6
330
DAE
100
AcDbEntity
  8
レイヤー_1
 62
     7
100
AcDbVertex
100
AcDb2dVertex
 10
128.4256231729114
 20
224.7292004318711
 30
0.0
  0
VERTEX
  5
DC7
330
DAE
100
AcDbEntity
  8
レイヤー_1
 62
     7
100
AcDbVertex
100
AcDb2dVertex
 10
127.9598461729114
 20
224.4327504318711
 30
0.0
  0
VERTEX
  5
DC8
330
DAE
100
AcDbEntity
  8
レイヤー_1
 62
     7
100
AcDbVertex
100
AcDb2dVertex
 10
127.5574581729114
 20
224.0729104318711
 30
0.0
  0
VERTEX
  5
DC9
330
DAE
100
AcDbEntity
  8
レイヤー_1
 62
     7
100
AcDbVertex
100
AcDb2dVertex
 10
127.1977901729114
 20
223.6496804318711
 30
0.0
  0
VERTEX
  5
DCA
330
DAE
100
AcDbEntity
  8
レイヤー_1
 62
     7
100
AcDbVertex
100
AcDb2dVertex
 10
126.9015121729114
 20
223.1839034318711
 30
0.0
  0
VERTEX
  5
DCB
330
DAE
100
AcDbEntity
  8
レイヤー_1
 62
     7
100
AcDbVertex
100
AcDb2dVertex
 10
126.6896391729114
 20
222.6759234318711
 30
0.0
  0
VERTEX
  5
DCC
330
DAE
100
AcDbEntity
  8
レイヤー_1
 62
     7
100
AcDbVertex
100
AcDb2dVertex
 10
126.5628591729114
 20
222.1467574318711
 30
0.0
  0
VERTEX
  5
DCD
330
DAE
100
AcDbEntity
  8
レイヤー_1
 62
     7
100
AcDbVertex
100
AcDb2dVertex
 10
126.5204851729114
 20
221.5964034318711
 30
0.0
  0
VERTEX
  5
DCE
330
DAE
100
AcDbEntity
  8
レイヤー_1
 62
     7
100
AcDbVertex
100
AcDb2dVertex
 10
126.5628591729114
 20
221.0462214318711
 30
0.0
  0
VERTEX
  5
DCF
330
DAE
100
AcDbEntity
  8
レイヤー_1
 62
     7
100
AcDbVertex
100
AcDb2dVertex
 10
126.6896391729114
 20
220.5170544318711
 30
0.0
  0
VERTEX
  5
DD0
330
DAE
100
AcDbEntity
  8
レイヤー_1
 62
     7
100
AcDbVertex
100
AcDb2dVertex
 10
126.9015121729114
 20
220.0089034318711
 30
0.0
  0
VERTEX
  5
DD1
330
DAE
100
AcDbEntity
  8
レイヤー_1
 62
     7
100
AcDbVertex
100
AcDb2dVertex
 10
127.1977901729114
 20
219.5432984318711
 30
0.0
  0
VERTEX
  5
DD2
330
DAE
100
AcDbEntity
  8
レイヤー_1
 62
     7
100
AcDbVertex
100
AcDb2dVertex
 10
127.5574581729114
 20
219.1198964318711
 30
0.0
  0
VERTEX
  5
DD3
330
DAE
100
AcDbEntity
  8
レイヤー_1
 62
     7
100
AcDbVertex
100
AcDb2dVertex
 10
127.9598461729114
 20
218.7600564318711
 30
0.0
  0
VERTEX
  5
DD4
330
DAE
100
AcDbEntity
  8
レイヤー_1
 62
     7
100
AcDbVertex
100
AcDb2dVertex
 10
128.4256231729114
 20
218.4849654318711
 30
0.0
  0
VERTEX
  5
DD5
330
DAE
100
AcDbEntity
  8
レイヤー_1
 62
     7
100
AcDbVertex
100
AcDb2dVertex
 10
128.9334301729114
 20
218.2732644318711
 30
0.0
  0
VERTEX
  5
DD6
330
DAE
100
AcDbEntity
  8
レイヤー_1
 62
     7
100
AcDbVertex
100
AcDb2dVertex
 10
129.4839561729114
 20
218.1463124318712
 30
0.0
  0
SEQEND
  5
DD7
330
DAE
100
AcDbEntity
  8
レイヤー_1
 62
     7
  0
LINE
  5
DD8
330
75
100
AcDbEntity
  8
レイヤー_1
 62
     7
100
AcDbLine
 10
156.0266941729115
 20
230.8463124318711
 30
0.0
 11
156.0266941729115
 21
160.3612094318711
 31
0.0
  0
LINE
  5
DD9
330
75
100
AcDbEntity
  8
レイヤー_1
 62
     7
100
AcDbLine
 10
104.0202221729114
 20
230.8463124318711
 30
0.0
 11
104.0202221729114
 21
160.3612094318711
 31
0.0
  0
POLYLINE
  5
DDA
330
75
100
AcDbEntity
  8
レイヤー_1
 62
     7
100
AcDb2dPolyline
 66
     1
 10
0.0
 20
0.0
 30
0.0
  0
VERTEX
  5
DDB
330
DDA
100
AcDbEntity
  8
レイヤー_1
 62
     7
100
AcDbVertex
100
AcDb2dVertex
 10
155.0107351729114
 20
87.27299143187114
 30
0.0
  0
VERTEX
  5
DDC
330
DDA
100
AcDbEntity
  8
レイヤー_1
 62
     7
100
AcDbVertex
100
AcDb2dVertex
 10
163.0116251729114
 20
87.27299143187114
 30
0.0
  0
VERTEX
  5
DDD
330
DDA
100
AcDbEntity
  8
レイヤー_1
 62
     7
100
AcDbVertex
100
AcDb2dVertex
 10
163.0116251729114
 20
88.26793543187113
 30
0.0
  0
VERTEX
  5
DDE
330
DDA
100
AcDbEntity
  8
レイヤー_1
 62
     7
100
AcDbVertex
100
AcDb2dVertex
 10
156.0266941729115
 20
88.26793543187113
 30
0.0
  0
SEQEND
  5
DDF
330
DDA
100
AcDbEntity
  8
レイヤー_1
 62
     7
  0
POLYLINE
  5
DE0
102
{ACAD_REACTORS
330
ED3
102
}
330
75
100
AcDbEntity
  8
レイヤー_1
 62
     7
100
AcDb2dPolyline
 66
     1
 10
0.0
 20
0.0
 30
0.0
  0
VERTEX
  5
DE1
330
DE0
100
AcDbEntity
  8
レイヤー_1
 62
     7
100
AcDbVertex
100
AcDb2dVertex
 10
104.0202221729114
 20
88.26793543187113
 30
0.0
  0
VERTEX
  5
DE2
102
{ACAD_REACTORS
330
ED3
102
}
330
DE0
100
AcDbEntity
  8
レイヤー_1
 62
     7
100
AcDbVertex
100
AcDb2dVertex
 10
97.03529017291145
 20
88.26793543187113
 30
0.0
  0
VERTEX
  5
DE3
330
DE0
100
AcDbEntity
  8
レイヤー_1
 62
     7
100
AcDbVertex
100
AcDb2dVertex
 10
97.03529017291145
 20
87.27299143187114
 30
0.0
  0
VERTEX
  5
DE4
330
DE0
100
AcDbEntity
  8
レイヤー_1
 62
     7
100
AcDbVertex
100
AcDb2dVertex
 10
105.0151651729114
 20
87.27299143187114
 30
0.0
  0
SEQEND
  5
DE5
330
DE0
100
AcDbEntity
  8
レイヤー_1
 62
     7
  0
POLYLINE
  5
DE6
330
75
100
AcDbEntity
  8
レイヤー_1
 62
     7
100
AcDb2dPolyline
 66
     1
 10
0.0
 20
0.0
 30
0.0
  0
VERTEX
  5
DE7
330
DE6
100
AcDbEntity
  8
レイヤー_1
 62
     7
100
AcDbVertex
100
AcDb2dVertex
 10
155.0107351729114
 20
87.27299143187114
 30
0.0
  0
VERTEX
  5
DE8
330
DE6
100
AcDbEntity
  8
レイヤー_1
 62
     7
100
AcDbVertex
100
AcDb2dVertex
 10
155.0107351729114
 20
108.2701594318711
 30
0.0
  0
VERTEX
  5
DE9
330
DE6
100
AcDbEntity
  8
レイヤー_1
 62
     7
100
AcDbVertex
100
AcDb2dVertex
 10
154.9897201729114
 20
108.6511874318711
 30
0.0
  0
VERTEX
  5
DEA
330
DE6
100
AcDbEntity
  8
レイヤー_1
 62
     7
100
AcDbVertex
100
AcDb2dVertex
 10
154.8625961729114
 20
109.0322144318711
 30
0.0
  0
VERTEX
  5
DEB
330
DE6
100
AcDbEntity
  8
レイヤー_1
 62
     7
100
AcDbVertex
100
AcDb2dVertex
 10
154.6934421729114
 20
109.3918824318711
 30
0.0
  0
VERTEX
  5
DEC
330
DE6
100
AcDbEntity
  8
レイヤー_1
 62
     7
100
AcDbVertex
100
AcDb2dVertex
 10
154.4391941729115
 20
109.6881604318711
 30
0.0
  0
VERTEX
  5
DED
330
DE6
100
AcDbEntity
  8
レイヤー_1
 62
     7
100
AcDbVertex
100
AcDb2dVertex
 10
154.1219011729114
 20
109.9424084318711
 30
0.0
  0
VERTEX
  5
DEE
330
DE6
100
AcDbEntity
  8
レイヤー_1
 62
     7
100
AcDbVertex
100
AcDb2dVertex
 10
153.7832481729114
 20
110.1119074318711
 30
0.0
  0
VERTEX
  5
DEF
330
DE6
100
AcDbEntity
  8
レイヤー_1
 62
     7
100
AcDbVertex
100
AcDb2dVertex
 10
153.4022201729114
 20
110.2386874318711
 30
0.0
  0
VERTEX
  5
DF0
330
DE6
100
AcDbEntity
  8
レイヤー_1
 62
     7
100
AcDbVertex
100
AcDb2dVertex
 10
153.0211931729114
 20
110.2807174318711
 30
0.0
  0
VERTEX
  5
DF1
330
DE6
100
AcDbEntity
  8
レイヤー_1
 62
     7
100
AcDbVertex
100
AcDb2dVertex
 10
107.0260671729114
 20
110.2807174318711
 30
0.0
  0
VERTEX
  5
DF2
330
DE6
100
AcDbEntity
  8
レイヤー_1
 62
     7
100
AcDbVertex
100
AcDb2dVertex
 10
106.6450401729114
 20
110.2386874318711
 30
0.0
  0
VERTEX
  5
DF3
330
DE6
100
AcDbEntity
  8
レイヤー_1
 62
     7
100
AcDbVertex
100
AcDb2dVertex
 10
106.2640121729114
 20
110.1119074318711
 30
0.0
  0
VERTEX
  5
DF4
330
DE6
100
AcDbEntity
  8
レイヤー_1
 62
     7
100
AcDbVertex
100
AcDb2dVertex
 10
105.9040001729114
 20
109.9424084318711
 30
0.0
  0
VERTEX
  5
DF5
330
DE6
100
AcDbEntity
  8
レイヤー_1
 62
     7
100
AcDbVertex
100
AcDb2dVertex
 10
105.6077221729115
 20
109.6881604318711
 30
0.0
  0
VERTEX
  5
DF6
330
DE6
100
AcDbEntity
  8
レイヤー_1
 62
     7
100
AcDbVertex
100
AcDb2dVertex
 10
105.3538181729114
 20
109.3918824318711
 30
0.0
  0
VERTEX
  5
DF7
330
DE6
100
AcDbEntity
  8
レイヤー_1
 62
     7
100
AcDbVertex
100
AcDb2dVertex
 10
105.1843191729114
 20
109.0322144318711
 30
0.0
  0
VERTEX
  5
DF8
330
DE6
100
AcDbEntity
  8
レイヤー_1
 62
     7
100
AcDbVertex
100
AcDb2dVertex
 10
105.0575401729114
 20
108.6511874318711
 30
0.0
  0
VERTEX
  5
DF9
330
DE6
100
AcDbEntity
  8
レイヤー_1
 62
     7
100
AcDbVertex
100
AcDb2dVertex
 10
105.0151651729114
 20
108.2701594318711
 30
0.0
  0
VERTEX
  5
DFA
330
DE6
100
AcDbEntity
  8
レイヤー_1
 62
     7
100
AcDbVertex
100
AcDb2dVertex
 10
105.0151651729114
 20
87.27299143187114
 30
0.0
  0
SEQEND
  5
DFB
330
DE6
100
AcDbEntity
  8
レイヤー_1
 62
     7
  0
POLYLINE
  5
DFC
330
75
100
AcDbEntity
  8
レイヤー_1
 62
     7
100
AcDb2dPolyline
 66
     1
 10
0.0
 20
0.0
 30
0.0
  0
VERTEX
  5
DFD
330
DFC
100
AcDbEntity
  8
レイヤー_1
 62
     7
100
AcDbVertex
100
AcDb2dVertex
 10
156.0266941729115
 20
88.26793543187113
 30
0.0
  0
VERTEX
  5
DFE
330
DFC
100
AcDbEntity
  8
レイヤー_1
 62
     7
100
AcDbVertex
100
AcDb2dVertex
 10
156.0266941729115
 20
108.2701594318711
 30
0.0
  0
VERTEX
  5
DFF
330
DFC
100
AcDbEntity
  8
レイヤー_1
 62
     7
100
AcDbVertex
100
AcDb2dVertex
 10
155.9843191729114
 20
108.7359364318711
 30
0.0
  0
VERTEX
  5
E00
330
DFC
100
AcDbEntity
  8
レイヤー_1
 62
     7
100
AcDbVertex
100
AcDb2dVertex
 10
155.8785551729114
 20
109.2017134318711
 30
0.0
  0
VERTEX
  5
E01
330
DFC
100
AcDbEntity
  8
レイヤー_1
 62
     7
100
AcDbVertex
100
AcDb2dVertex
 10
155.6880411729114
 20
109.6247714318711
 30
0.0
  0
VERTEX
  5
E02
330
DFC
100
AcDbEntity
  8
レイヤー_1
 62
     7
100
AcDbVertex
100
AcDb2dVertex
 10
155.4551531729114
 20
110.0271584318711
 30
0.0
  0
VERTEX
  5
E03
330
DFC
100
AcDbEntity
  8
レイヤー_1
 62
     7
100
AcDbVertex
100
AcDb2dVertex
 10
155.1378591729114
 20
110.3868264318711
 30
0.0
  0
VERTEX
  5
E04
330
DFC
100
AcDbEntity
  8
レイヤー_1
 62
     7
100
AcDbVertex
100
AcDb2dVertex
 10
154.7778471729114
 20
110.7044634318711
 30
0.0
  0
VERTEX
  5
E05
330
DFC
100
AcDbEntity
  8
レイヤー_1
 62
     7
100
AcDbVertex
100
AcDb2dVertex
 10
154.3758041729114
 20
110.9373524318711
 30
0.0
  0
VERTEX
  5
E06
330
DFC
100
AcDbEntity
  8
レイヤー_1
 62
     7
100
AcDbVertex
100
AcDb2dVertex
 10
153.9524021729114
 20
111.1275214318711
 30
0.0
  0
VERTEX
  5
E07
330
DFC
100
AcDbEntity
  8
レイヤー_1
 62
     7
100
AcDbVertex
100
AcDb2dVertex
 10
153.4866251729114
 20
111.2336304318711
 30
0.0
  0
VERTEX
  5
E08
330
DFC
100
AcDbEntity
  8
レイヤー_1
 62
     7
100
AcDbVertex
100
AcDb2dVertex
 10
153.0211931729114
 20
111.2756604318711
 30
0.0
  0
VERTEX
  5
E09
330
DFC
100
AcDbEntity
  8
レイヤー_1
 62
     7
100
AcDbVertex
100
AcDb2dVertex
 10
107.0260671729114
 20
111.2756604318711
 30
0.0
  0
VERTEX
  5
E0A
330
DFC
100
AcDbEntity
  8
レイヤー_1
 62
     7
100
AcDbVertex
100
AcDb2dVertex
 10
106.5602901729114
 20
111.2336304318711
 30
0.0
  0
VERTEX
  5
E0B
330
DFC
100
AcDbEntity
  8
レイヤー_1
 62
     7
100
AcDbVertex
100
AcDb2dVertex
 10
106.0945141729114
 20
111.1275214318711
 30
0.0
  0
VERTEX
  5
E0C
330
DFC
100
AcDbEntity
  8
レイヤー_1
 62
     7
100
AcDbVertex
100
AcDb2dVertex
 10
105.6714561729114
 20
110.9373524318711
 30
0.0
  0
VERTEX
  5
E0D
330
DFC
100
AcDbEntity
  8
レイヤー_1
 62
     7
100
AcDbVertex
100
AcDb2dVertex
 10
105.2690691729114
 20
110.7044634318711
 30
0.0
  0
VERTEX
  5
E0E
330
DFC
100
AcDbEntity
  8
レイヤー_1
 62
     7
100
AcDbVertex
100
AcDb2dVertex
 10
104.9094011729114
 20
110.3868264318711
 30
0.0
  0
VERTEX
  5
E0F
330
DFC
100
AcDbEntity
  8
レイヤー_1
 62
     7
100
AcDbVertex
100
AcDb2dVertex
 10
104.5917631729114
 20
110.0271584318711
 30
0.0
  0
VERTEX
  5
E10
330
DFC
100
AcDbEntity
  8
レイヤー_1
 62
     7
100
AcDbVertex
100
AcDb2dVertex
 10
104.3588741729114
 20
109.6247714318711
 30
0.0
  0
VERTEX
  5
E11
330
DFC
100
AcDbEntity
  8
レイヤー_1
 62
     7
100
AcDbVertex
100
AcDb2dVertex
 10
104.1683611729114
 20
109.2017134318711
 30
0.0
  0
VERTEX
  5
E12
330
DFC
100
AcDbEntity
  8
レイヤー_1
 62
     7
100
AcDbVertex
100
AcDb2dVertex
 10
104.0625961729114
 20
108.7359364318711
 30
0.0
  0
VERTEX
  5
E13
330
DFC
100
AcDbEntity
  8
レイヤー_1
 62
     7
100
AcDbVertex
100
AcDb2dVertex
 10
104.0202221729114
 20
108.2701594318711
 30
0.0
  0
VERTEX
  5
E14
330
DFC
100
AcDbEntity
  8
レイヤー_1
 62
     7
100
AcDbVertex
100
AcDb2dVertex
 10
104.0202221729114
 20
88.26793543187113
 30
0.0
  0
SEQEND
  5
E15
330
DFC
100
AcDbEntity
  8
レイヤー_1
 62
     7
  0
POLYLINE
  5
E16
102
{ACAD_REACTORS
330
109D
102
}
330
75
100
AcDbEntity
  8
レイヤー_1
 62
     7
100
AcDb2dPolyline
 66
     1
 10
0.0
 20
0.0
 30
0.0
  0
VERTEX
  5
E17
330
E16
100
AcDbEntity
  8
レイヤー_1
 62
     7
100
AcDbVertex
100
AcDb2dVertex
 10
97.03529017291145
 20
197.5933894318711
 30
0.0
  0
VERTEX
  5
E18
330
E16
100
AcDbEntity
  8
レイヤー_1
 62
     7
100
AcDbVertex
100
AcDb2dVertex
 10
97.03529017291145
 20
178.0989724318711
 30
0.0
  0
VERTEX
  5
E19
330
E16
100
AcDbEntity
  8
レイヤー_1
 62
     7
100
AcDbVertex
100
AcDb2dVertex
 10
97.05630617291145
 20
177.9084584318711
 30
0.0
  0
VERTEX
  5
E1A
330
E16
100
AcDbEntity
  8
レイヤー_1
 62
     7
100
AcDbVertex
100
AcDb2dVertex
 10
97.16241517291146
 20
177.7393044318711
 30
0.0
  0
VERTEX
  5
E1B
102
{ACAD_REACTORS
330
109D
102
}
330
E16
100
AcDbEntity
  8
レイヤー_1
 62
     7
100
AcDbVertex
100
AcDb2dVertex
 10
97.33156917291147
 20
177.6331954318711
 30
0.0
  0
VERTEX
  5
E1C
330
E16
100
AcDbEntity
  8
レイヤー_1
 62
     7
100
AcDbVertex
100
AcDb2dVertex
 10
97.52208217291146
 20
177.5908204318711
 30
0.0
  0
SEQEND
  5
E1D
330
E16
100
AcDbEntity
  8
レイヤー_1
 62
     7
  0
POLYLINE
  5
E1E
102
{ACAD_REACTORS
330
109D
102
}
330
75
100
AcDbEntity
  8
レイヤー_1
 62
     7
100
AcDb2dPolyline
 66
     1
 10
0.0
 20
0.0
 30
0.0
  0
VERTEX
  5
E1F
102
{ACAD_REACTORS
330
109D
102
}
330
E1E
100
AcDbEntity
  8
レイヤー_1
 62
     7
100
AcDbVertex
100
AcDb2dVertex
 10
97.52208217291146
 20
173.5903754318711
 30
0.0
  0
VERTEX
  5
E20
330
E1E
100
AcDbEntity
  8
レイヤー_1
 62
     7
100
AcDbVertex
100
AcDb2dVertex
 10
97.33156917291147
 20
173.5693604318711
 30
0.0
  0
VERTEX
  5
E21
330
E1E
100
AcDbEntity
  8
レイヤー_1
 62
     7
100
AcDbVertex
100
AcDb2dVertex
 10
97.16241517291146
 20
173.4635964318711
 30
0.0
  0
VERTEX
  5
E22
330
E1E
100
AcDbEntity
  8
レイヤー_1
 62
     7
100
AcDbVertex
100
AcDb2dVertex
 10
97.05630617291145
 20
173.2940974318711
 30
0.0
  0
VERTEX
  5
E23
330
E1E
100
AcDbEntity
  8
レイヤー_1
 62
     7
100
AcDbVertex
100
AcDb2dVertex
 10
97.03529017291145
 20
173.1035834318711
 30
0.0
  0
SEQEND
  5
E24
330
E1E
100
AcDbEntity
  8
レイヤー_1
 62
     7
  0
LINE
  5
E25
330
75
100
AcDbEntity
  8
レイヤー_1
 62
     7
100
AcDbLine
 10
97.03529017291145
 20
167.3461404318711
 30
0.0
 11
97.03529017291145
 21
173.1035834318711
 31
0.0
  0
POLYLINE
  5
E26
330
75
100
AcDbEntity
  8
レイヤー_1
 62
     7
100
AcDb2dPolyline
 66
     1
 10
0.0
 20
0.0
 30
0.0
  0
VERTEX
  5
E27
330
E26
100
AcDbEntity
  8
レイヤー_1
 62
     7
100
AcDbVertex
100
AcDb2dVertex
 10
97.03529017291145
 20
167.3461404318711
 30
0.0
  0
VERTEX
  5
E28
330
E26
100
AcDbEntity
  8
レイヤー_1
 62
     7
100
AcDbVertex
100
AcDb2dVertex
 10
97.05630617291145
 20
166.6268044318711
 30
0.0
  0
VERTEX
  5
E29
330
E26
100
AcDbEntity
  8
レイヤー_1
 62
     7
100
AcDbVertex
100
AcDb2dVertex
 10
97.18343017291145
 20
165.8857644318711
 30
0.0
  0
VERTEX
  5
E2A
330
E26
100
AcDbEntity
  8
レイヤー_1
 62
     7
100
AcDbVertex
100
AcDb2dVertex
 10
97.37394317291146
 20
165.1874434318711
 30
0.0
  0
VERTEX
  5
E2B
330
E26
100
AcDbEntity
  8
レイヤー_1
 62
     7
100
AcDbVertex
100
AcDb2dVertex
 10
97.62784717291147
 20
164.5101374318711
 30
0.0
  0
VERTEX
  5
E2C
330
E26
100
AcDbEntity
  8
レイヤー_1
 62
     7
100
AcDbVertex
100
AcDb2dVertex
 10
97.96650017291145
 20
163.8538464318711
 30
0.0
  0
VERTEX
  5
E2D
330
E26
100
AcDbEntity
  8
レイヤー_1
 62
     7
100
AcDbVertex
100
AcDb2dVertex
 10
98.36888717291145
 20
163.2399304318711
 30
0.0
  0
VERTEX
  5
E2E
330
E26
100
AcDbEntity
  8
レイヤー_1
 62
     7
100
AcDbVertex
100
AcDb2dVertex
 10
98.81330417291145
 20
162.6683894318711
 30
0.0
  0
VERTEX
  5
E2F
330
E26
100
AcDbEntity
  8
レイヤー_1
 62
     7
100
AcDbVertex
100
AcDb2dVertex
 10
99.34247117291146
 20
162.1392224318711
 30
0.0
  0
VERTEX
  5
E30
330
E26
100
AcDbEntity
  8
レイヤー_1
 62
     7
100
AcDbVertex
100
AcDb2dVertex
 10
99.91401217291146
 20
161.6948054318711
 30
0.0
  0
VERTEX
  5
E31
330
E26
100
AcDbEntity
  8
レイヤー_1
 62
     7
100
AcDbVertex
100
AcDb2dVertex
 10
100.5279281729114
 20
161.2927624318711
 30
0.0
  0
VERTEX
  5
E32
330
E26
100
AcDbEntity
  8
レイヤー_1
 62
     7
100
AcDbVertex
100
AcDb2dVertex
 10
101.1838741729114
 20
160.9541094318711
 30
0.0
  0
VERTEX
  5
E33
330
E26
100
AcDbEntity
  8
レイヤー_1
 62
     7
100
AcDbVertex
100
AcDb2dVertex
 10
101.8611801729114
 20
160.6998614318711
 30
0.0
  0
VERTEX
  5
E34
330
E26
100
AcDbEntity
  8
レイヤー_1
 62
     7
100
AcDbVertex
100
AcDb2dVertex
 10
102.5598461729114
 20
160.5093484318711
 30
0.0
  0
VERTEX
  5
E35
330
E26
100
AcDbEntity
  8
レイヤー_1
 62
     7
100
AcDbVertex
100
AcDb2dVertex
 10
103.3005411729114
 20
160.3825684318711
 30
0.0
  0
VERTEX
  5
E36
330
E26
100
AcDbEntity
  8
レイヤー_1
 62
     7
100
AcDbVertex
100
AcDb2dVertex
 10
104.0202221729114
 20
160.3612094318711
 30
0.0
  0
SEQEND
  5
E37
330
E26
100
AcDbEntity
  8
レイヤー_1
 62
     7
  0
LINE
  5
E38
102
{ACAD_REACTORS
330
FA6
330
FCA
330
10C2
102
}
330
75
100
AcDbEntity
  8
レイヤー_1
 62
     7
100
AcDbLine
 10
156.0266941729115
 20
160.3612094318711
 30
0.0
 11
104.0202221729114
 21
160.3612094318711
 31
0.0
  0
POLYLINE
  5
E39
102
{ACAD_REACTORS
330
F5F
330
FA6
102
}
330
75
100
AcDbEntity
  8
レイヤー_1
 62
     7
100
AcDb2dPolyline
 66
     1
 10
0.0
 20
0.0
 30
0.0
  0
VERTEX
  5
E3A
102
{ACAD_REACTORS
330
F5F
330
FA6
102
}
330
E39
100
AcDbEntity
  8
レイヤー_1
 62
     7
100
AcDbVertex
100
AcDb2dVertex
 10
156.0266941729115
 20
160.3612094318711
 30
0.0
  0
VERTEX
  5
E3B
330
E39
100
AcDbEntity
  8
レイヤー_1
 62
     7
100
AcDbVertex
100
AcDb2dVertex
 10
156.7463741729114
 20
160.3825684318711
 30
0.0
  0
VERTEX
  5
E3C
330
E39
100
AcDbEntity
  8
レイヤー_1
 62
     7
100
AcDbVertex
100
AcDb2dVertex
 10
157.4660551729114
 20
160.5093484318711
 30
0.0
  0
VERTEX
  5
E3D
330
E39
100
AcDbEntity
  8
レイヤー_1
 62
     7
100
AcDbVertex
100
AcDb2dVertex
 10
158.1857351729114
 20
160.6998614318711
 30
0.0
  0
VERTEX
  5
E3E
330
E39
100
AcDbEntity
  8
レイヤー_1
 62
     7
100
AcDbVertex
100
AcDb2dVertex
 10
158.8630411729115
 20
160.9541094318711
 30
0.0
  0
VERTEX
  5
E3F
330
E39
100
AcDbEntity
  8
レイヤー_1
 62
     7
100
AcDbVertex
100
AcDb2dVertex
 10
159.5193321729114
 20
161.2927624318711
 30
0.0
  0
VERTEX
  5
E40
330
E39
100
AcDbEntity
  8
レイヤー_1
 62
     7
100
AcDbVertex
100
AcDb2dVertex
 10
160.1332481729114
 20
161.6948054318711
 30
0.0
  0
VERTEX
  5
E41
330
E39
100
AcDbEntity
  8
レイヤー_1
 62
     7
100
AcDbVertex
100
AcDb2dVertex
 10
160.7047891729114
 20
162.1392224318711
 30
0.0
  0
VERTEX
  5
E42
330
E39
100
AcDbEntity
  8
レイヤー_1
 62
     7
100
AcDbVertex
100
AcDb2dVertex
 10
161.2125961729114
 20
162.6683894318711
 30
0.0
  0
VERTEX
  5
E43
330
E39
100
AcDbEntity
  8
レイヤー_1
 62
     7
100
AcDbVertex
100
AcDb2dVertex
 10
161.6783731729114
 20
163.2399304318711
 30
0.0
  0
VERTEX
  5
E44
330
E39
100
AcDbEntity
  8
レイヤー_1
 62
     7
100
AcDbVertex
100
AcDb2dVertex
 10
162.0804161729114
 20
163.8538464318711
 30
0.0
  0
VERTEX
  5
E45
330
E39
100
AcDbEntity
  8
レイヤー_1
 62
     7
100
AcDbVertex
100
AcDb2dVertex
 10
162.4190691729114
 20
164.5101374318711
 30
0.0
  0
VERTEX
  5
E46
330
E39
100
AcDbEntity
  8
レイヤー_1
 62
     7
100
AcDbVertex
100
AcDb2dVertex
 10
162.6729721729114
 20
165.1874434318711
 30
0.0
  0
VERTEX
  5
E47
330
E39
100
AcDbEntity
  8
レイヤー_1
 62
     7
100
AcDbVertex
100
AcDb2dVertex
 10
162.8634861729114
 20
165.8857644318711
 30
0.0
  0
VERTEX
  5
E48
102
{ACAD_REACTORS
330
F5F
102
}
330
E39
100
AcDbEntity
  8
レイヤー_1
 62
     7
100
AcDbVertex
100
AcDb2dVertex
 10
162.9906101729114
 20
166.6268044318711
 30
0.0
  0
VERTEX
  5
E49
330
E39
100
AcDbEntity
  8
レイヤー_1
 62
     7
100
AcDbVertex
100
AcDb2dVertex
 10
163.0116251729114
 20
167.3461404318711
 30
0.0
  0
SEQEND
  5
E4A
330
E39
100
AcDbEntity
  8
レイヤー_1
 62
     7
  0
POLYLINE
  5
E4B
330
75
100
AcDbEntity
  8
レイヤー_1
 62
     7
100
AcDb2dPolyline
 66
     1
 10
0.0
 20
0.0
 30
0.0
  0
VERTEX
  5
E4C
330
E4B
100
AcDbEntity
  8
レイヤー_1
 62
     7
100
AcDbVertex
100
AcDb2dVertex
 10
163.0116251729114
 20
167.3461404318711
 30
0.0
  0
VERTEX
  5
E4D
330
E4B
100
AcDbEntity
  8
レイヤー_1
 62
     7
100
AcDbVertex
100
AcDb2dVertex
 10
163.0116251729114
 20
173.1035834318711
 30
0.0
  0
VERTEX
  5
E4E
330
E4B
100
AcDbEntity
  8
レイヤー_1
 62
     7
100
AcDbVertex
100
AcDb2dVertex
 10
162.9906101729114
 20
173.2940974318711
 30
0.0
  0
VERTEX
  5
E4F
330
E4B
100
AcDbEntity
  8
レイヤー_1
 62
     7
100
AcDbVertex
100
AcDb2dVertex
 10
162.8634861729114
 20
173.4635964318711
 30
0.0
  0
VERTEX
  5
E50
330
E4B
100
AcDbEntity
  8
レイヤー_1
 62
     7
100
AcDbVertex
100
AcDb2dVertex
 10
162.7153471729114
 20
173.5693604318711
 30
0.0
  0
VERTEX
  5
E51
330
E4B
100
AcDbEntity
  8
レイヤー_1
 62
     7
100
AcDbVertex
100
AcDb2dVertex
 10
162.5248331729114
 20
173.5903754318711
 30
0.0
  0
SEQEND
  5
E52
330
E4B
100
AcDbEntity
  8
レイヤー_1
 62
     7
  0
POLYLINE
  5
E53
330
75
100
AcDbEntity
  8
レイヤー_1
 62
     7
100
AcDb2dPolyline
 66
     1
 10
0.0
 20
0.0
 30
0.0
  0
VERTEX
  5
E54
330
E53
100
AcDbEntity
  8
レイヤー_1
 62
     7
100
AcDbVertex
100
AcDb2dVertex
 10
162.5248331729114
 20
177.5908204318711
 30
0.0
  0
VERTEX
  5
E55
330
E53
100
AcDbEntity
  8
レイヤー_1
 62
     7
100
AcDbVertex
100
AcDb2dVertex
 10
162.7153471729114
 20
177.6331954318711
 30
0.0
  0
VERTEX
  5
E56
330
E53
100
AcDbEntity
  8
レイヤー_1
 62
     7
100
AcDbVertex
100
AcDb2dVertex
 10
162.8634861729114
 20
177.7393044318711
 30
0.0
  0
VERTEX
  5
E57
330
E53
100
AcDbEntity
  8
レイヤー_1
 62
     7
100
AcDbVertex
100
AcDb2dVertex
 10
162.9906101729114
 20
177.9084584318711
 30
0.0
  0
VERTEX
  5
E58
330
E53
100
AcDbEntity
  8
レイヤー_1
 62
     7
100
AcDbVertex
100
AcDb2dVertex
 10
163.0116251729114
 20
178.0989724318711
 30
0.0
  0
SEQEND
  5
E59
330
E53
100
AcDbEntity
  8
レイヤー_1
 62
     7
  0
LINE
  5
E5A
330
75
100
AcDbEntity
  8
レイヤー_1
 62
     7
100
AcDbLine
 10
163.0116251729114
 20
213.1087214318712
 30
0.0
 11
163.0116251729114
 21
178.0989724318711
 31
0.0
  0
LINE
  5
E5B
330
75
100
AcDbEntity
  8
レイヤー_1
 62
     7
100
AcDbLine
 10
163.0116251729114
 20
223.8612094318711
 30
0.0
 11
163.0116251729114
 21
218.1039374318711
 31
0.0
  0
POLYLINE
  5
E5C
330
75
100
AcDbEntity
  8
レイヤー_1
 62
     7
100
AcDb2dPolyline
 66
     1
 10
0.0
 20
0.0
 30
0.0
  0
VERTEX
  5
E5D
330
E5C
100
AcDbEntity
  8
レイヤー_1
 62
     7
100
AcDbVertex
100
AcDb2dVertex
 10
163.0116251729114
 20
223.8612094318711
 30
0.0
  0
VERTEX
  5
E5E
330
E5C
100
AcDbEntity
  8
レイヤー_1
 62
     7
100
AcDbVertex
100
AcDb2dVertex
 10
162.9906101729114
 20
224.5808894318712
 30
0.0
  0
VERTEX
  5
E5F
330
E5C
100
AcDbEntity
  8
レイヤー_1
 62
     7
100
AcDbVertex
100
AcDb2dVertex
 10
162.8634861729114
 20
225.3005694318711
 30
0.0
  0
VERTEX
  5
E60
330
E5C
100
AcDbEntity
  8
レイヤー_1
 62
     7
100
AcDbVertex
100
AcDb2dVertex
 10
162.6729721729114
 20
226.0202504318712
 30
0.0
  0
VERTEX
  5
E61
330
E5C
100
AcDbEntity
  8
レイヤー_1
 62
     7
100
AcDbVertex
100
AcDb2dVertex
 10
162.4190691729114
 20
226.6975564318712
 30
0.0
  0
VERTEX
  5
E62
330
E5C
100
AcDbEntity
  8
レイヤー_1
 62
     7
100
AcDbVertex
100
AcDb2dVertex
 10
162.0804161729114
 20
227.3538464318711
 30
0.0
  0
VERTEX
  5
E63
330
E5C
100
AcDbEntity
  8
レイヤー_1
 62
     7
100
AcDbVertex
100
AcDb2dVertex
 10
161.6783731729114
 20
227.9675904318712
 30
0.0
  0
VERTEX
  5
E64
330
E5C
100
AcDbEntity
  8
レイヤー_1
 62
     7
100
AcDbVertex
100
AcDb2dVertex
 10
161.2125961729114
 20
228.5391314318712
 30
0.0
  0
VERTEX
  5
E65
330
E5C
100
AcDbEntity
  8
レイヤー_1
 62
     7
100
AcDbVertex
100
AcDb2dVertex
 10
160.7047891729114
 20
229.0471114318711
 30
0.0
  0
VERTEX
  5
E66
330
E5C
100
AcDbEntity
  8
レイヤー_1
 62
     7
100
AcDbVertex
100
AcDb2dVertex
 10
160.1332481729114
 20
229.5128884318711
 30
0.0
  0
VERTEX
  5
E67
330
E5C
100
AcDbEntity
  8
レイヤー_1
 62
     7
100
AcDbVertex
100
AcDb2dVertex
 10
159.5193321729114
 20
229.9149304318711
 30
0.0
  0
VERTEX
  5
E68
330
E5C
100
AcDbEntity
  8
レイヤー_1
 62
     7
100
AcDbVertex
100
AcDb2dVertex
 10
158.8630411729115
 20
230.2535834318712
 30
0.0
  0
VERTEX
  5
E69
330
E5C
100
AcDbEntity
  8
レイヤー_1
 62
     7
100
AcDbVertex
100
AcDb2dVertex
 10
158.1857351729114
 20
230.5076594318711
 30
0.0
  0
VERTEX
  5
E6A
330
E5C
100
AcDbEntity
  8
レイヤー_1
 62
     7
100
AcDbVertex
100
AcDb2dVertex
 10
157.4660551729114
 20
230.6981734318712
 30
0.0
  0
VERTEX
  5
E6B
330
E5C
100
AcDbEntity
  8
レイヤー_1
 62
     7
100
AcDbVertex
100
AcDb2dVertex
 10
156.7463741729114
 20
230.8039374318711
 30
0.0
  0
VERTEX
  5
E6C
330
E5C
100
AcDbEntity
  8
レイヤー_1
 62
     7
100
AcDbVertex
100
AcDb2dVertex
 10
156.0266941729115
 20
230.8463124318711
 30
0.0
  0
SEQEND
  5
E6D
330
E5C
100
AcDbEntity
  8
レイヤー_1
 62
     7
  0
LINE
  5
E6E
102
{ACAD_REACTORS
330
10C2
102
}
330
75
100
AcDbEntity
  8
レイヤー_1
 62
     7
100
AcDbLine
 10
104.0202221729114
 20
230.8463124318711
 30
0.0
 11
156.0266941729115
 21
230.8463124318711
 31
0.0
  0
POLYLINE
  5
E6F
330
75
100
AcDbEntity
  8
レイヤー_1
 62
     7
100
AcDb2dPolyline
 66
     1
 10
0.0
 20
0.0
 30
0.0
  0
VERTEX
  5
E70
330
E6F
100
AcDbEntity
  8
レイヤー_1
 62
     7
100
AcDbVertex
100
AcDb2dVertex
 10
104.0202221729114
 20
230.8463124318711
 30
0.0
  0
VERTEX
  5
E71
330
E6F
100
AcDbEntity
  8
レイヤー_1
 62
     7
100
AcDbVertex
100
AcDb2dVertex
 10
103.3005411729114
 20
230.8039374318711
 30
0.0
  0
VERTEX
  5
E72
330
E6F
100
AcDbEntity
  8
レイヤー_1
 62
     7
100
AcDbVertex
100
AcDb2dVertex
 10
102.5598461729114
 20
230.6981734318712
 30
0.0
  0
VERTEX
  5
E73
330
E6F
100
AcDbEntity
  8
レイヤー_1
 62
     7
100
AcDbVertex
100
AcDb2dVertex
 10
101.8611801729114
 20
230.5076594318711
 30
0.0
  0
VERTEX
  5
E74
330
E6F
100
AcDbEntity
  8
レイヤー_1
 62
     7
100
AcDbVertex
100
AcDb2dVertex
 10
101.1838741729114
 20
230.2535834318712
 30
0.0
  0
VERTEX
  5
E75
330
E6F
100
AcDbEntity
  8
レイヤー_1
 62
     7
100
AcDbVertex
100
AcDb2dVertex
 10
100.5279281729114
 20
229.9149304318711
 30
0.0
  0
VERTEX
  5
E76
330
E6F
100
AcDbEntity
  8
レイヤー_1
 62
     7
100
AcDbVertex
100
AcDb2dVertex
 10
99.91401217291146
 20
229.5128884318711
 30
0.0
  0
VERTEX
  5
E77
330
E6F
100
AcDbEntity
  8
レイヤー_1
 62
     7
100
AcDbVertex
100
AcDb2dVertex
 10
99.34247117291146
 20
229.0471114318711
 30
0.0
  0
VERTEX
  5
E78
330
E6F
100
AcDbEntity
  8
レイヤー_1
 62
     7
100
AcDbVertex
100
AcDb2dVertex
 10
98.81330417291145
 20
228.5391314318712
 30
0.0
  0
VERTEX
  5
E79
330
E6F
100
AcDbEntity
  8
レイヤー_1
 62
     7
100
AcDbVertex
100
AcDb2dVertex
 10
98.36888717291145
 20
227.9675904318712
 30
0.0
  0
VERTEX
  5
E7A
330
E6F
100
AcDbEntity
  8
レイヤー_1
 62
     7
100
AcDbVertex
100
AcDb2dVertex
 10
97.96650017291145
 20
227.3538464318711
 30
0.0
  0
VERTEX
  5
E7B
330
E6F
100
AcDbEntity
  8
レイヤー_1
 62
     7
100
AcDbVertex
100
AcDb2dVertex
 10
97.62784717291147
 20
226.6975564318712
 30
0.0
  0
VERTEX
  5
E7C
330
E6F
100
AcDbEntity
  8
レイヤー_1
 62
     7
100
AcDbVertex
100
AcDb2dVertex
 10
97.37394317291146
 20
226.0202504318712
 30
0.0
  0
VERTEX
  5
E7D
330
E6F
100
AcDbEntity
  8
レイヤー_1
 62
     7
100
AcDbVertex
100
AcDb2dVertex
 10
97.18343017291145
 20
225.3005694318711
 30
0.0
  0
VERTEX
  5
E7E
330
E6F
100
AcDbEntity
  8
レイヤー_1
 62
     7
100
AcDbVertex
100
AcDb2dVertex
 10
97.05630617291145
 20
224.5808894318712
 30
0.0
  0
VERTEX
  5
E7F
330
E6F
100
AcDbEntity
  8
レイヤー_1
 62
     7
100
AcDbVertex
100
AcDb2dVertex
 10
97.03529017291145
 20
223.8612094318711
 30
0.0
  0
SEQEND
  5
E80
330
E6F
100
AcDbEntity
  8
レイヤー_1
 62
     7
  0
LINE
  5
E81
330
75
100
AcDbEntity
  8
レイヤー_1
 62
     7
100
AcDbLine
 10
97.03529017291145
 20
218.1039374318711
 30
0.0
 11
97.03529017291145
 21
223.8612094318711
 31
0.0
  0
POLYLINE
  5
E82
102
{ACAD_REACTORS
330
1076
102
}
330
75
100
AcDbEntity
  8
レイヤー_1
 62
     7
100
AcDb2dPolyline
 66
     1
 10
0.0
 20
0.0
 30
0.0
  0
VERTEX
  5
E83
102
{ACAD_REACTORS
330
1076
102
}
330
E82
100
AcDbEntity
  8
レイヤー_1
 62
     7
100
AcDbVertex
100
AcDb2dVertex
 10
97.52208217291146
 20
213.5955134318711
 30
0.0
  0
VERTEX
  5
E84
330
E82
100
AcDbEntity
  8
レイヤー_1
 62
     7
100
AcDbVertex
100
AcDb2dVertex
 10
97.33156917291147
 20
213.5531384318711
 30
0.0
  0
VERTEX
  5
E85
330
E82
100
AcDbEntity
  8
レイヤー_1
 62
     7
100
AcDbVertex
100
AcDb2dVertex
 10
97.16241517291146
 20
213.4473744318711
 30
0.0
  0
VERTEX
  5
E86
330
E82
100
AcDbEntity
  8
レイヤー_1
 62
     7
100
AcDbVertex
100
AcDb2dVertex
 10
97.05630617291145
 20
213.2990634318711
 30
0.0
  0
VERTEX
  5
E87
330
E82
100
AcDbEntity
  8
レイヤー_1
 62
     7
100
AcDbVertex
100
AcDb2dVertex
 10
97.03529017291145
 20
213.1087214318712
 30
0.0
  0
SEQEND
  5
E88
330
E82
100
AcDbEntity
  8
レイヤー_1
 62
     7
  0
LINE
  5
E89
330
75
100
AcDbEntity
  8
レイヤー_1
 62
     7
100
AcDbLine
 10
97.03529017291145
 20
197.5933894318711
 30
0.0
 11
97.03529017291145
 21
213.1087214318712
 31
0.0
  0
DIMENSION
  5
E99
102
{ACAD_XDICTIONARY
360
EA7
102
}
102
{ACAD_REACTORS
330
EA8
102
}
330
75
100
AcDbEntity
  8
AM_5
100
AcDbDimension
  2
*D5
 10
36.13874917291145
 20
120.0614714318711
 30
0.0
 11
48.14025617291146
 21
122.5614714318711
 31
0.0
 70
    32
 71
     5
 42
24.00301400000001
  3
AM_ISO$0
100
AcDbAlignedDimension
 13
60.14176317291146
 23
160.3612094318711
 33
0.0
 14
36.13874917291145
 24
160.3612094318711
 34
0.0
 50
0.0000000000001132
100
AcDbRotatedDimension
1001
ACAD
1000
DSTYLE
1002
{
1070
    50
1040
1.570796326794896
1002
}
1001
ACAD_DSTYLE_DIMINSPECT
1070
   396
1000
100%
1070
   395
1000

1070
   394
1070
    33
1070
   393
1070
     0
  0
DIMENSION
  5
EC5
102
{ACAD_XDICTIONARY
360
ED2
102
}
102
{ACAD_REACTORS
330
ED3
102
}
330
75
100
AcDbEntity
  8
AM_5
100
AcDbDimension
  2
*D6
 10
69.68945617291146
 20
87.27299143187115
 30
0.0
 11
67.18945617291145
 21
99.27432593187116
 31
0.0
 70
    32
 71
     5
 42
24.002669
  3
AM_ISO$0
100
AcDbAlignedDimension
 13
106.0311241729114
 23
111.2756604318711
 33
0.0
 14
97.03529017291145
 24
87.27299143187114
 34
0.0
 50
90.00000000000003
100
AcDbRotatedDimension
1001
ACAD
1000
DSTYLE
1002
{
1070
    50
1040
1.570796326794896
1002
}
1001
ACAD_DSTYLE_DIMINSPECT
1070
   396
1000
100%
1070
   395
1000

1070
   394
1070
    33
1070
   393
1070
     0
  0
DIMENSION
  5
F4F
102
{ACAD_XDICTIONARY
360
F5E
102
}
102
{ACAD_REACTORS
330
F5F
102
}
330
75
100
AcDbEntity
  8
AM_5
100
AcDbDimension
  2
*D7
 10
156.0266941729115
 20
125.9254105098234
 30
0.0
 11
159.5139059229115
 21
128.4254105098234
 31
0.0
 70
    32
  1
7
 71
     5
 42
6.974423499999971
  3
AM_ISO$0
100
AcDbAlignedDimension
 13
163.0011176729114
 23
166.9864724318711
 33
0.0
 14
156.0266941729115
 24
160.3612094318711
 34
0.0
 50
0.0000000000001132
100
AcDbRotatedDimension
1001
ACAD_DSTYLE_DIMINSPECT
1070
   396
1000
100%
1070
   395
1000

1070
   394
1070
    33
1070
   393
1070
     0
1001
ACAD
1000
DSTYLE
1002
{
1070
    50
1040
1.570796326794896
1070
   174
1070
     1
1002
}
  0
DIMENSION
  5
F98
102
{ACAD_XDICTIONARY
360
FA5
102
}
102
{ACAD_REACTORS
330
FA6
102
}
330
75
100
AcDbEntity
  8
AM_5
100
AcDbDimension
  2
*D8
 10
156.0266941729115
 20
125.9254105098234
 30
0.0
 11
130.0234581729114
 21
128.4254105098234
 31
0.0
 70
    32
  1
52
 71
     5
 42
52.00647200000003
  3
AM_ISO$0
100
AcDbAlignedDimension
 13
104.0202221729114
 23
160.3612094318711
 33
0.0
 14
156.0266941729115
 24
160.3612094318711
 34
0.0
100
AcDbRotatedDimension
1001
ACAD
1000
DSTYLE
1002
{
1070
   174
1070
     1
1070
    50
1040
1.570796326794896
1002
}
1001
ACAD_DSTYLE_DIMINSPECT
1070
   396
1000
100%
1070
   395
1000

1070
   394
1070
    33
1070
   393
1070
     0
  0
DIMENSION
  5
FBA
102
{ACAD_XDICTIONARY
360
FC9
102
}
102
{ACAD_REACTORS
330
FCA
102
}
330
75
100
AcDbEntity
  8
AM_5
100
AcDbDimension
  2
*D9
 10
104.0202221729114
 20
125.9254105098233
 30
0.0
 11
100.5277561729114
 21
128.4254105098233
 31
0.0
 70
    32
  1
7
 71
     5
 42
6.984932
  3
AM_ISO$0
100
AcDbAlignedDimension
 13
97.03529017291145
 23
166.3515414318711
 33
0.0
 14
104.0202221729114
 24
160.3612094318711
 34
0.0
100
AcDbRotatedDimension
1001
ACAD
1000
DSTYLE
1002
{
1070
   174
1070
     1
1070
    50
1040
1.570796326794896
1002
}
1001
ACAD_DSTYLE_DIMINSPECT
1070
   396
1000
100%
1070
   395
1000

1070
   394
1070
    33
1070
   393
1070
     0
  0
DIMENSION
  5
1009
102
{ACAD_XDICTIONARY
360
1016
102
}
102
{ACAD_REACTORS
330
1017
102
}
330
75
100
AcDbEntity
  8
AM_5
100
AcDbDimension
  2
*D10
 10
187.4938735333414
 20
175.6012774318711
 30
0.0
 11
184.9938735333414
 21
195.6037604318711
 31
0.0
 70
    32
 71
     5
 42
40.00496599999997
  3
AM_ISO$0
100
AcDbAlignedDimension
 13
163.6045261729114
 23
215.6062434318711
 33
0.0
 14
163.6045261729114
 24
175.6012774318711
 34
0.0
 50
90.00000000000003
100
AcDbRotatedDimension
1001
ACAD
1000
DSTYLE
1002
{
1070
    50
1040
1.570796326794896
1002
}
1001
ACAD_DSTYLE_DIMINSPECT
1070
   396
1000
100%
1070
   395
1000

1070
   394
1070
    33
1070
   393
1070
     0
  0
DIMENSION
  5
1033
102
{ACAD_XDICTIONARY
360
1040
102
}
102
{ACAD_REACTORS
330
1041
102
}
330
75
100
AcDbEntity
  8
AM_5
100
AcDbDimension
  2
*D11
 10
100.0197771729114
 20
250.0763864990031
 30
0.0
 11
130.0129506729114
 21
252.5763864990031
 31
0.0
 70
    32
  1
60
 71
     5
 42
59.986347
  3
AM_ISO$0
100
AcDbAlignedDimension
 13
160.0061241729114
 23
219.1834584318712
 33
0.0
 14
100.0197771729114
 24
219.1834584318712
 34
0.0
100
AcDbRotatedDimension
1001
ACAD
1000
DSTYLE
1002
{
1070
    50
1040
1.570796326794896
1002
}
1001
ACAD_DSTYLE_DIMINSPECT
1070
   396
1000
100%
1070
   395
1000

1070
   394
1070
    33
1070
   393
1070
     0
  0
DIMENSION
  5
1066
102
{ACAD_XDICTIONARY
360
1075
102
}
102
{ACAD_REACTORS
330
1076
102
}
330
75
100
AcDbEntity
  8
AM_5
100
AcDbDimension
  2
*D12
 10
88.45974524956956
 20
217.5959584318711
 30
0.0
 11
85.95974524956952
 21
215.5957359318712
 31
0.0
 70
    32
 71
     5
 42
4.000445000000013
  3
AM_ISO$0
100
AcDbAlignedDimension
 13
97.52208217291146
 23
213.5955134318711
 33
0.0
 14
97.52208217291146
 24
217.5959584318711
 34
0.0
 50
90.00000000000003
100
AcDbRotatedDimension
1001
ACAD
1000
DSTYLE
1002
{
1070
    50
1040
1.570796326794896
1002
}
1001
ACAD_DSTYLE_DIMINSPECT
1070
   396
1000
100%
1070
   395
1000

1070
   394
1070
    33
1070
   393
1070
     0
  0
DIMENSION
  5
108D
102
{ACAD_XDICTIONARY
360
109C
102
}
102
{ACAD_REACTORS
330
109D
102
}
330
75
100
AcDbEntity
  8
AM_5
100
AcDbDimension
  2
*D13
 10
89.49983317291145
 20
173.5903754318711
 30
0.0
 11
86.99983317291142
 21
175.5905979318711
 31
0.0
 70
    32
 71
     5
 42
4.000445000000013
  3
AM_ISO$0
100
AcDbAlignedDimension
 13
97.52208217291146
 23
177.5908204318711
 33
0.0
 14
97.52208217291146
 24
173.5903754318711
 34
0.0
 50
90.00000000000003
100
AcDbRotatedDimension
1001
ACAD
1000
DSTYLE
1002
{
1070
    50
1040
1.570796326794896
1002
}
1001
ACAD_DSTYLE_DIMINSPECT
1070
   396
1000
100%
1070
   395
1000

1070
   394
1070
    33
1070
   393
1070
     0
  0
DIMENSION
  5
10B4
102
{ACAD_XDICTIONARY
360
10C1
102
}
102
{ACAD_REACTORS
330
10C2
102
}
330
75
100
AcDbEntity
  8
AM_5
100
AcDbDimension
  2
*D14
 10
77.46047343475789
 20
160.3612094318711
 30
0.0
 11
74.96047343475786
 21
195.6037609318712
 31
0.0
 70
    32
  1
70.5
 71
     5
 42
70.48510300000003
  3
AM_ISO$0
100
AcDbAlignedDimension
 13
104.0202221729114
 23
230.8463124318711
 33
0.0
 14
104.0202221729114
 24
160.3612094318711
 34
0.0
 50
90.00000000000003
100
AcDbRotatedDimension
1001
ACAD
1000
DSTYLE
1002
{
1070
    50
1040
1.570796326794896
1002
}
1001
ACAD_DSTYLE_DIMINSPECT
1070
   396
1000
100%
1070
   395
1000

1070
   394
1070
    33
1070
   393
1070
     0
  0
ENDSEC
  0
SECTION
  2
OBJECTS
  0
DICTIONARY
  5
C
330
0
100
AcDbDictionary
281
     1
  3
ACAD_2007HEADERVARS_RT
350
1101
  3
ACAD_COLOR
350
6B
  3
ACAD_GROUP
350
D
  3
ACAD_LAYOUT
350
6A
  3
ACAD_MATERIAL
350
10
  3
ACAD_MLEADERSTYLE
350
6E
  3
ACAD_MLINESTYLE
350
67
  3
ACAD_PLOTSETTINGS
350
69
  3
ACAD_PLOTSTYLENAME
350
E
  3
ACAD_SCALELIST
350
3A
  3
ACAD_TABLESTYLE
350
6C
  3
ACAD_VISUALSTYLE
350
29
  3
ACDB_RECOMPOSE_DATA
350
163
  3
AcDbVariableDictionary
350
164
  3
AcmDictionary
350
DC
  3
AMG
350
7F
  3
AMGSNAPSETTINGS
350
13A
  3
ASE_INDEX_DICTIONARY
350
239
  3
DWGPROPS
350
1100
  0
DICTIONARY
  5
12A
330
2
100
AcDbDictionary
280
     1
281
     1
  3
ACAD_LAYERSTATES
360
12B
  3
AMLAYER_GROUPCOLORS
360
1BE
  0
DICTIONARY
  5
158
330
5C
100
AcDbDictionary
280
     1
281
     1
  3
ADSK_XREC_LAYER_RECONCILED
360
159
  0
DICTIONARY
  5
11A
330
119
100
AcDbDictionary
280
     1
281
     1
  3
ADSK_XREC_LAYER_RECONCILED
360
15A
  0
DICTIONARY
  5
11C
330
11B
100
AcDbDictionary
280
     1
281
     1
  3
ADSK_XREC_LAYER_RECONCILED
360
15B
  0
DICTIONARY
  5
15C
330
11D
100
AcDbDictionary
280
     1
281
     1
  3
ADSK_XREC_LAYER_RECONCILED
360
15D
  0
DICTIONARY
  5
EA7
330
E99
100
AcDbDictionary
280
     1
281
     1
  3
ACAD_DIMASSOC
360
EA8
  0
DICTIONARY
  5
ED2
330
EC5
100
AcDbDictionary
280
     1
281
     1
  3
ACAD_DIMASSOC
360
ED3
  0
DICTIONARY
  5
F5E
330
F4F
100
AcDbDictionary
280
     1
281
     1
  3
ACAD_DIMASSOC
360
F5F
  0
DICTIONARY
  5
FA5
330
F98
100
AcDbDictionary
280
     1
281
     1
  3
ACAD_DIMASSOC
360
FA6
  0
DICTIONARY
  5
FC9
330
FBA
100
AcDbDictionary
280
     1
281
     1
  3
ACAD_DIMASSOC
360
FCA
  0
DICTIONARY
  5
1016
330
1009
100
AcDbDictionary
280
     1
281
     1
  3
ACAD_DIMASSOC
360
1017
  0
DICTIONARY
  5
1040
330
1033
100
AcDbDictionary
280
     1
281
     1
  3
ACAD_DIMASSOC
360
1041
  0
DICTIONARY
  5
1075
330
1066
100
AcDbDictionary
280
     1
281
     1
  3
ACAD_DIMASSOC
360
1076
  0
DICTIONARY
  5
109C
330
108D
100
AcDbDictionary
280
     1
281
     1
  3
ACAD_DIMASSOC
360
109D
  0
DICTIONARY
  5
10C1
330
10B4
100
AcDbDictionary
280
     1
281
     1
  3
ACAD_DIMASSOC
360
10C2
  0
DICTIONARY
  5
1101
102
{ACAD_REACTORS
330
C
102
}
330
C
100
AcDbDictionary
281
     1
  3
DIMARCSYM
350
1102
  3
DIMJOGANG
350
1103
  0
DICTIONARY
  5
6B
102
{ACAD_REACTORS
330
C
102
}
330
C
100
AcDbDictionary
281
     1
  0
DICTIONARY
  5
D
102
{ACAD_REACTORS
330
C
102
}
330
C
100
AcDbDictionary
281
     1
  0
DICTIONARY
  5
6A
102
{ACAD_REACTORS
330
C
102
}
330
C
100
AcDbDictionary
281
     1
  3
Model
350
78
  3
レイアウト1
350
74
  3
レイアウト2
350
7C
  0
DICTIONARY
  5
10
102
{ACAD_REACTORS
330
C
102
}
330
C
100
AcDbDictionary
281
     1
  3
ByBlock
350
19
  3
ByLayer
350
11
  3
Global
350
21
  0
DICTIONARY
  5
6E
102
{ACAD_REACTORS
330
C
102
}
330
C
100
AcDbDictionary
281
     1
  3
Standard
350
6F
  0
DICTIONARY
  5
67
102
{ACAD_REACTORS
330
C
102
}
330
C
100
AcDbDictionary
281
     1
  3
Standard
350
68
  0
DICTIONARY
  5
69
102
{ACAD_REACTORS
330
C
102
}
330
C
100
AcDbDictionary
281
     1
  0
ACDBDICTIONARYWDFLT
  5
E
102
{ACAD_REACTORS
330
C
102
}
330
C
100
AcDbDictionary
281
     1
  3
Normal
350
F
100
AcDbDictionaryWithDefault
340
F
  0
DICTIONARY
  5
3A
102
{ACAD_REACTORS
330
C
102
}
330
C
100
AcDbDictionary
281
     1
  3
A0
350
3B
  3
A1
350
3C
  3
A2
350
3D
  3
A3
350
3E
  3
A4
350
3F
  3
A5
350
40
  3
A6
350
41
  3
A7
350
42
  3
A8
350
43
  3
A9
350
44
  3
B0
350
45
  3
B1
350
46
  3
B2
350
47
  3
B3
350
48
  3
B4
350
49
  3
B5
350
4A
  3
B6
350
4B
  3
B7
350
4C
  3
B8
350
4D
  3
B9
350
4E
  3
C0
350
4F
  3
C1
350
50
  3
C2
350
51
  3
C3
350
52
  3
C4
350
53
  3
C5
350
54
  3
C6
350
55
  3
C7
350
56
  3
C8
350
57
  3
C9
350
58
  3
D0
350
59
  3
D1
350
5A
  3
D2
350
5B
  0
DICTIONARY
  5
6C
102
{ACAD_REACTORS
330
C
102
}
330
C
100
AcDbDictionary
281
     1
  3
Standard
350
6D
  0
DICTIONARY
  5
29
102
{ACAD_REACTORS
330
C
102
}
330
C
100
AcDbDictionary
281
     1
  3
2dWireframe
350
2F
  3
3D Hidden
350
31
  3
3dWireframe
350
30
  3
Basic
350
2E
  3
Brighten
350
35
  3
ColorChange
350
39
  3
Conceptual
350
32
  3
Dim
350
34
  3
Facepattern
350
38
  3
Flat
350
2A
  3
FlatWithEdges
350
2B
  3
Gouraud
350
2C
  3
GouraudWithEdges
350
2D
  3
Linepattern
350
37
  3
Realistic
350
33
  3
Thicken
350
36
  0
XRECORD
  5
163
102
{ACAD_REACTORS
330
C
102
}
330
C
100
AcDbXrecord
280
     1
 90
        1
330
6D
  0
DICTIONARY
  5
164
102
{ACAD_REACTORS
330
C
102
}
330
C
100
AcDbDictionary
281
     1
  3
CANNOSCALE
350
167
  3
CMLEADERSTYLE
350
166
  3
CTABLESTYLE
350
165
  3
DIMASSOC
350
240
  3
HIDETEXT
350
23F
  3
INDEXCTL
350
23E
  3
LIGHTINGUNITS
350
23C
  3
MSLTSCALE
350
23B
  3
SORTENTS
350
23D
  0
DICTIONARY
  5
DC
102
{ACAD_REACTORS
330
C
102
}
330
C
100
AcDbDictionary
281
     1
  3
AcmStdDictionary
350
DE
  3
AMDTSECTSYM_ARROWCOLOR
350
F6
  0
DICTIONARY
  5
7F
102
{ACAD_REACTORS
330
C
102
}
330
C
100
AcDbDictionary
281
     1
  0
DICTIONARY
  5
13A
102
{ACAD_REACTORS
330
C
102
}
330
C
100
AcDbDictionary
281
     1
  0
DICTIONARY
  5
239
102
{ACAD_REACTORS
330
C
102
}
330
C
100
AcDbDictionary
281
     1
  3
ASEBlockHierarchyIndexRecord
350
23A
1001
DCO15
1040
1599799633.89
  0
XRECORD
  5
1100
102
{ACAD_REACTORS
330
C
102
}
330
C
100
AcDbXrecord
280
     1
  1
DWGPROPS COOKIE
  2

  3

  4

  6

  7

  8
Administrator
  9

300
=
301
=
302
=
303
=
304
=
305
=
306
=
307
=
308
=
309
=
 40
0.0119930902777778
 41
2454313.581725069
 42
2455089.746963067
  1

 90
        0
  0
DICTIONARY
  5
12B
102
{ACAD_REACTORS
330
12A
102
}
330
12A
100
AcDbDictionary
281
     1
  0
DICTIONARY
  5
1BE
102
{ACAD_REACTORS
330
12A
102
}
330
12A
100
AcDbDictionary
280
     1
281
     1
  0
XRECORD
  5
159
102
{ACAD_REACTORS
330
158
102
}
330
158
100
AcDbXrecord
280
     1
290
     1
  0
XRECORD
  5
15A
102
{ACAD_REACTORS
330
11A
102
}
330
11A
100
AcDbXrecord
280
     1
290
     1
  0
XRECORD
  5
15B
102
{ACAD_REACTORS
330
11C
102
}
330
11C
100
AcDbXrecord
280
     1
290
     1
  0
XRECORD
  5
15D
102
{ACAD_REACTORS
330
15C
102
}
330
15C
100
AcDbXrecord
280
     1
290
     1
  0
DIMASSOC
  5
EA8
102
{ACAD_REACTORS
330
EA7
102
}
330
EA7
100
AcDbDimAssoc
330
E99
 90
        3
 70
     0
 71
     0
  1
AcDbOsnapPointRef
 72
     1
331
DA8
331
DAA
 73
     0
 91
        0
 40
0.0
 10
0.0
 20
0.0
 30
2.000000000000000E+50
 75
     0
  1
AcDbOsnapPointRef
 72
     1
331
DA8
331
DAB
 73
     0
 91
        0
 40
0.0
 10
0.0
 20
0.0
 30
2.000000000000000E+50
 75
     0
  0
DIMASSOC
  5
ED3
102
{ACAD_REACTORS
330
ED2
102
}
330
ED2
100
AcDbDimAssoc
330
EC5
 90
        2
 70
     0
 71
     0
  1
AcDbOsnapPointRef
 72
     1
331
DE0
331
DE2
 73
     0
 91
        0
 40
0.0
 10
0.0
 20
0.0
 30
2.000000000000000E+50
 75
     0
  0
DIMASSOC
  5
F5F
102
{ACAD_REACTORS
330
F5E
102
}
330
F5E
100
AcDbDimAssoc
330
F4F
 90
        3
 70
     0
 71
     0
  1
AcDbOsnapPointRef
 72
     2
331
E39
331
E48
 73
     0
 91
        0
 40
0.0
 10
0.0
 20
0.0
 30
0.0
 75
     0
  1
AcDbOsnapPointRef
 72
    13
331
E39
331
E3A
 73
     0
 91
        0
 40
0.0
 10
0.0
 20
0.0
 30
2.000000000000000E+50
 75
     0
  0
DIMASSOC
  5
FA6
102
{ACAD_REACTORS
330
FA5
102
}
330
FA5
100
AcDbDimAssoc
330
F98
 90
        3
 70
     0
 71
     0
  1
AcDbOsnapPointRef
 72
     1
331
E38
 73
     0
 91
        0
 40
0.0
 10
0.0
 20
0.0
 30
2.000000000000000E+50
 75
     0
  1
AcDbOsnapPointRef
 72
    13
331
E39
331
E3A
 73
     0
 91
        0
 40
0.0
 10
0.0
 20
0.0
 30
2.000000000000000E+50
 75
     0
  0
DIMASSOC
  5
FCA
102
{ACAD_REACTORS
330
FC9
102
}
330
FC9
100
AcDbDimAssoc
330
FBA
 90
        2
 70
     0
 71
     0
  1
AcDbOsnapPointRef
 72
     1
331
E38
 73
     0
 91
        0
 40
0.0
 10
0.0
 20
0.0
 30
2.000000000000000E+50
 75
     0
  0
DIMASSOC
  5
1017
102
{ACAD_REACTORS
330
1016
102
}
330
1016
100
AcDbDimAssoc
330
1009
 90
        3
 70
     0
 71
     0
  1
AcDbOsnapPointRef
 72
     1
331
987
 73
     0
 91
        0
 40
0.0
 10
0.0
 20
0.0
 30
2.000000000000000E+50
 75
     0
  1
AcDbOsnapPointRef
 72
     1
331
97B
 73
     0
 91
        0
 40
0.0
 10
0.0
 20
0.0
 30
2.000000000000000E+50
 75
     0
  0
DIMASSOC
  5
1041
102
{ACAD_REACTORS
330
1040
102
}
330
1040
100
AcDbDimAssoc
330
1033
 90
        3
 70
     0
 71
     0
  1
AcDbOsnapPointRef
 72
     1
331
984
 73
     0
 91
        0
 40
0.0
 10
0.0
 20
0.0
 30
2.000000000000000E+50
 75
     0
  1
AcDbOsnapPointRef
 72
     1
331
96C
 73
     0
 91
        0
 40
0.0
 10
0.0
 20
0.0
 30
2.000000000000000E+50
 75
     0
  0
DIMASSOC
  5
1076
102
{ACAD_REACTORS
330
1075
102
}
330
1075
100
AcDbDimAssoc
330
1066
 90
        3
 70
     0
 71
     0
  1
AcDbOsnapPointRef
 72
    13
331
E82
331
E83
 73
     0
 91
        0
 40
0.0
 10
0.0
 20
0.0
 30
2.000000000000000E+50
 75
     0
  1
AcDbOsnapPointRef
 72
     1
331
CAF
 73
     0
 91
        0
 40
0.0
 10
0.0
 20
0.0
 30
2.000000000000000E+50
 75
     0
  0
DIMASSOC
  5
109D
102
{ACAD_REACTORS
330
109C
102
}
330
109C
100
AcDbDimAssoc
330
108D
 90
        3
 70
     0
 71
     0
  1
AcDbOsnapPointRef
 72
     1
331
E16
331
E1B
 73
     0
 91
        0
 40
0.0
 10
0.0
 20
0.0
 30
2.000000000000000E+50
 75
     0
  1
AcDbOsnapPointRef
 72
    13
331
E1E
331
E1F
 73
     0
 91
        0
 40
0.0
 10
0.0
 20
0.0
 30
2.000000000000000E+50
 75
     0
  0
DIMASSOC
  5
10C2
102
{ACAD_REACTORS
330
10C1
102
}
330
10C1
100
AcDbDimAssoc
330
10B4
 90
        3
 70
     0
 71
     0
  1
AcDbOsnapPointRef
 72
    13
331
E6E
 73
     0
 91
        0
 40
0.0
 10
0.0
 20
0.0
 30
2.000000000000000E+50
 75
     0
  1
AcDbOsnapPointRef
 72
     1
331
E38
 73
     0
 91
        0
 40
0.0
 10
0.0
 20
0.0
 30
2.000000000000000E+50
 75
     0
  0
XRECORD
  5
1102
102
{ACAD_REACTORS
330
1101
102
}
330
1101
100
AcDbXrecord
280
     1
 70
     1
  0
XRECORD
  5
1103
102
{ACAD_REACTORS
330
1101
102
}
330
1101
100
AcDbXrecord
280
     1
 40
1.570796326794896
  0
LAYOUT
  5
78
102
{ACAD_XDICTIONARY
360
1107
102
}
102
{ACAD_REACTORS
330
6A
102
}
330
6A
100
AcDbPlotSettings
  1

  2
EPSON LP-8800C
  4
A4
  6

 40
5.873749732971191
 41
5.873717308044432
 42
5.873748779296875
 43
5.873748779296875
 44
209.9733276367186
 45
297.0106506347656
 46
-5.887085437774657
 47
-5.868407726287839
 48
0.0
 49
0.0
140
0.0
141
0.0
142
1.0
143
1.0
 70
 11940
 72
     1
 73
     0
 74
     2
  7
monochrome.ctb
 75
     0
147
0.6674270340890596
148
0.0
149
0.0
100
AcDbLayout
  1
Model
 70
     1
 71
     0
 10
0.0
 20
0.0
 11
12.0
 21
9.0
 12
0.0
 22
0.0
 32
0.0
 14
0.0
 24
0.0
 34
0.0
 15
0.0
 25
0.0
 35
0.0
146
0.0
 13
0.0
 23
0.0
 33
0.0
 16
1.0
 26
0.0
 36
0.0
 17
0.0
 27
1.0
 37
0.0
 76
     0
330
75
331
5F
1001
ACAD_PSEXT
1000
EPSON LP-8800C
1000
EPSON LP-8800C
1000
IP_192.168.0.95
1000

1070
     0
  0
LAYOUT
  5
74
102
{ACAD_XDICTIONARY
360
1105
102
}
102
{ACAD_REACTORS
330
6A
102
}
330
6A
100
AcDbPlotSettings
  1

  2
EPSON LP-8800C
  4

  6

 40
0.0
 41
0.0
 42
0.0
 43
0.0
 44
0.0
 45
0.0
 46
0.0
 47
0.0
 48
0.0
 49
0.0
140
0.0
141
0.0
142
1.0
143
1.0
 70
   688
 72
     0
 73
     0
 74
     5
  7
monochrome.ctb
 75
    16
147
1.0
148
0.0
149
0.0
100
AcDbLayout
  1
レイアウト1
 70
     1
 71
     1
 10
0.0
 20
0.0
 11
420.0
 21
297.0
 12
0.0
 22
0.0
 32
0.0
 14
1.000000000000000E+20
 24
1.000000000000000E+20
 34
1.000000000000000E+20
 15
-1.000000000000000E+20
 25
-1.000000000000000E+20
 35
-1.000000000000000E+20
146
0.0
 13
0.0
 23
0.0
 33
0.0
 16
1.0
 26
0.0
 36
0.0
 17
0.0
 27
1.0
 37
0.0
 76
     0
330
71
  0
LAYOUT
  5
7C
102
{ACAD_XDICTIONARY
360
1109
102
}
102
{ACAD_REACTORS
330
6A
102
}
330
6A
100
AcDbPlotSettings
  1

  2
EPSON LP-8800C
  4

  6

 40
0.0
 41
0.0
 42
0.0
 43
0.0
 44
0.0
 45
0.0
 46
0.0
 47
0.0
 48
0.0
 49
0.0
140
0.0
141
0.0
142
1.0
143
1.0
 70
   688
 72
     0
 73
     0
 74
     5
  7
monochrome.ctb
 75
    16
147
1.0
148
0.0
149
0.0
100
AcDbLayout
  1
レイアウト2
 70
     1
 71
     2
 10
0.0
 20
0.0
 11
12.0
 21
9.0
 12
0.0
 22
0.0
 32
0.0
 14
0.0
 24
0.0
 34
0.0
 15
0.0
 25
0.0
 35
0.0
146
0.0
 13
0.0
 23
0.0
 33
0.0
 16
1.0
 26
0.0
 36
0.0
 17
0.0
 27
1.0
 37
0.0
 76
     0
330
79
  0
MATERIAL
  5
19
102
{ACAD_XDICTIONARY
360
1A
102
}
102
{ACAD_REACTORS
330
10
102
}
330
10
100
AcDbMaterial
  1
ByBlock
 72
     0
 43
0.0208333333333333
 43
0.0
 43
0.0
 43
0.0
 43
0.0
 43
0.0208333333333333
 43
0.0
 43
0.0
 43
0.0
 43
0.0
 43
1.0
 43
0.0
 43
0.0
 43
0.0
 43
0.0
 43
1.0
 77
     0
 47
0.0208333333333333
 47
0.0
 47
0.0
 47
0.0
 47
0.0
 47
0.0208333333333333
 47
0.0
 47
0.0
 47
0.0
 47
0.0
 47
1.0
 47
0.0
 47
0.0
 47
0.0
 47
0.0
 47
1.0
171
     0
 49
0.0208333333333333
 49
0.0
 49
0.0
 49
0.0
 49
0.0
 49
0.0208333333333333
 49
0.0
 49
0.0
 49
0.0
 49
0.0
 49
1.0
 49
0.0
 49
0.0
 49
0.0
 49
0.0
 49
1.0
175
     0
142
0.0208333333333333
142
0.0
142
0.0
142
0.0
142
0.0
142
0.0208333333333333
142
0.0
142
0.0
142
0.0
142
0.0
142
1.0
142
0.0
142
0.0
142
0.0
142
0.0
142
1.0
179
     0
144
0.0208333333333333
144
0.0
144
0.0
144
0.0
144
0.0
144
0.0208333333333333
144
0.0
144
0.0
144
0.0
144
0.0
144
1.0
144
0.0
144
0.0
144
0.0
144
0.0
144
1.0
147
0.0208333333333333
147
0.0
147
0.0
147
0.0
147
0.0
147
0.0208333333333333
147
0.0
147
0.0
147
0.0
147
0.0
147
1.0
147
0.0
147
0.0
147
0.0
147
0.0
147
1.0
  0
MATERIAL
  5
11
102
{ACAD_XDICTIONARY
360
12
102
}
102
{ACAD_REACTORS
330
10
102
}
330
10
100
AcDbMaterial
  1
ByLayer
 72
     0
 43
0.0208333333333333
 43
0.0
 43
0.0
 43
0.0
 43
0.0
 43
0.0208333333333333
 43
0.0
 43
0.0
 43
0.0
 43
0.0
 43
1.0
 43
0.0
 43
0.0
 43
0.0
 43
0.0
 43
1.0
 77
     0
 47
0.0208333333333333
 47
0.0
 47
0.0
 47
0.0
 47
0.0
 47
0.0208333333333333
 47
0.0
 47
0.0
 47
0.0
 47
0.0
 47
1.0
 47
0.0
 47
0.0
 47
0.0
 47
0.0
 47
1.0
171
     0
 49
0.0208333333333333
 49
0.0
 49
0.0
 49
0.0
 49
0.0
 49
0.0208333333333333
 49
0.0
 49
0.0
 49
0.0
 49
0.0
 49
1.0
 49
0.0
 49
0.0
 49
0.0
 49
0.0
 49
1.0
175
     0
142
0.0208333333333333
142
0.0
142
0.0
142
0.0
142
0.0
142
0.0208333333333333
142
0.0
142
0.0
142
0.0
142
0.0
142
1.0
142
0.0
142
0.0
142
0.0
142
0.0
142
1.0
179
     0
144
0.0208333333333333
144
0.0
144
0.0
144
0.0
144
0.0
144
0.0208333333333333
144
0.0
144
0.0
144
0.0
144
0.0
144
1.0
144
0.0
144
0.0
144
0.0
144
0.0
144
1.0
147
0.0208333333333333
147
0.0
147
0.0
147
0.0
147
0.0
147
0.0208333333333333
147
0.0
147
0.0
147
0.0
147
0.0
147
1.0
147
0.0
147
0.0
147
0.0
147
0.0
147
1.0
  0
MATERIAL
  5
21
102
{ACAD_XDICTIONARY
360
22
102
}
102
{ACAD_REACTORS
330
10
102
}
330
10
100
AcDbMaterial
  1
Global
 72
     0
 43
0.0208333333333333
 43
0.0
 43
0.0
 43
0.0
 43
0.0
 43
0.0208333333333333
 43
0.0
 43
0.0
 43
0.0
 43
0.0
 43
1.0
 43
0.0
 43
0.0
 43
0.0
 43
0.0
 43
1.0
 77
     0
 47
0.0208333333333333
 47
0.0
 47
0.0
 47
0.0
 47
0.0
 47
0.0208333333333333
 47
0.0
 47
0.0
 47
0.0
 47
0.0
 47
1.0
 47
0.0
 47
0.0
 47
0.0
 47
0.0
 47
1.0
171
     0
 49
0.0208333333333333
 49
0.0
 49
0.0
 49
0.0
 49
0.0
 49
0.0208333333333333
 49
0.0
 49
0.0
 49
0.0
 49
0.0
 49
1.0
 49
0.0
 49
0.0
 49
0.0
 49
0.0
 49
1.0
175
     0
142
0.0208333333333333
142
0.0
142
0.0
142
0.0
142
0.0
142
0.0208333333333333
142
0.0
142
0.0
142
0.0
142
0.0
142
1.0
142
0.0
142
0.0
142
0.0
142
0.0
142
1.0
179
     0
144
0.0208333333333333
144
0.0
144
0.0
144
0.0
144
0.0
144
0.0208333333333333
144
0.0
144
0.0
144
0.0
144
0.0
144
1.0
144
0.0
144
0.0
144
0.0
144
0.0
144
1.0
147
0.0208333333333333
147
0.0
147
0.0
147
0.0
147
0.0
147
0.0208333333333333
147
0.0
147
0.0
147
0.0
147
0.0
147
1.0
147
0.0
147
0.0
147
0.0
147
0.0
147
1.0
  0
MLEADERSTYLE
  5
6F
102
{ACAD_REACTORS
330
6E
102
}
330
6E
100
AcDbMLeaderStyle
170
     2
171
     1
172
     0
 90
        2
 40
0.0
 41
0.0
173
     1
 91
-1056964608
340
63
 92
       -2
290
     1
 42
0.09
291
     1
 43
0.36
  3
Standard
 44
0.18
300

342
5D
174
     1
178
     6
175
     1
176
     0
 93
-1056964608
 45
0.18
292
     0
297
     0
 46
0.18
 94
-1056964608
 47
1.0
 49
1.0
140
1.0
293
     1
141
0.0
294
     1
177
     0
142
1.0
295
     0
296
     0
143
0.125
1001
ACAD_MLEADERVER
1070
     2
  0
MLINESTYLE
  5
68
102
{ACAD_REACTORS
330
67
102
}
330
67
100
AcDbMlineStyle
  2
STANDARD
 70
     0
  3

 62
   256
 51
90.0
 52
90.0
 71
     2
 49
0.5
 62
   256
  6
BYLAYER
 49
-0.5
 62
   256
  6
BYLAYER
  0
ACDBPLACEHOLDER
  5
F
102
{ACAD_REACTORS
330
E
102
}
330
E
  0
SCALE
  5
3B
102
{ACAD_REACTORS
330
3A
102
}
330
3A
100
AcDbScale
 70
     0
300
1:1
140
1.0
141
1.0
290
     1
  0
SCALE
  5
3C
102
{ACAD_REACTORS
330
3A
102
}
330
3A
100
AcDbScale
 70
     0
300
1:2
140
1.0
141
2.0
290
     0
  0
SCALE
  5
3D
102
{ACAD_REACTORS
330
3A
102
}
330
3A
100
AcDbScale
 70
     0
300
1:4
140
1.0
141
4.0
290
     0
  0
SCALE
  5
3E
102
{ACAD_REACTORS
330
3A
102
}
330
3A
100
AcDbScale
 70
     0
300
1:5
140
1.0
141
5.0
290
     0
  0
SCALE
  5
3F
102
{ACAD_REACTORS
330
3A
102
}
330
3A
100
AcDbScale
 70
     0
300
1:8
140
1.0
141
8.0
290
     0
  0
SCALE
  5
40
102
{ACAD_REACTORS
330
3A
102
}
330
3A
100
AcDbScale
 70
     0
300
1:10
140
1.0
141
10.0
290
     0
  0
SCALE
  5
41
102
{ACAD_REACTORS
330
3A
102
}
330
3A
100
AcDbScale
 70
     0
300
1:16
140
1.0
141
16.0
290
     0
  0
SCALE
  5
42
102
{ACAD_REACTORS
330
3A
102
}
330
3A
100
AcDbScale
 70
     0
300
1:20
140
1.0
141
20.0
290
     0
  0
SCALE
  5
43
102
{ACAD_REACTORS
330
3A
102
}
330
3A
100
AcDbScale
 70
     0
300
1:30
140
1.0
141
30.0
290
     0
  0
SCALE
  5
44
102
{ACAD_REACTORS
330
3A
102
}
330
3A
100
AcDbScale
 70
     0
300
1:40
140
1.0
141
40.0
290
     0
  0
SCALE
  5
45
102
{ACAD_REACTORS
330
3A
102
}
330
3A
100
AcDbScale
 70
     0
300
1:50
140
1.0
141
50.0
290
     0
  0
SCALE
  5
46
102
{ACAD_REACTORS
330
3A
102
}
330
3A
100
AcDbScale
 70
     0
300
1:100
140
1.0
141
100.0
290
     0
  0
SCALE
  5
47
102
{ACAD_REACTORS
330
3A
102
}
330
3A
100
AcDbScale
 70
     0
300
2:1
140
2.0
141
1.0
290
     0
  0
SCALE
  5
48
102
{ACAD_REACTORS
330
3A
102
}
330
3A
100
AcDbScale
 70
     0
300
4:1
140
4.0
141
1.0
290
     0
  0
SCALE
  5
49
102
{ACAD_REACTORS
330
3A
102
}
330
3A
100
AcDbScale
 70
     0
300
8:1
140
8.0
141
1.0
290
     0
  0
SCALE
  5
4A
102
{ACAD_REACTORS
330
3A
102
}
330
3A
100
AcDbScale
 70
     0
300
10:1
140
10.0
141
1.0
290
     0
  0
SCALE
  5
4B
102
{ACAD_REACTORS
330
3A
102
}
330
3A
100
AcDbScale
 70
     0
300
100:1
140
100.0
141
1.0
290
     0
  0
SCALE
  5
4C
102
{ACAD_REACTORS
330
3A
102
}
330
3A
100
AcDbScale
 70
     0
300
1/128" = 1'-0"
140
0.0078125
141
12.0
290
     0
  0
SCALE
  5
4D
102
{ACAD_REACTORS
330
3A
102
}
330
3A
100
AcDbScale
 70
     0
300
1/64" = 1'-0"
140
0.015625
141
12.0
290
     0
  0
SCALE
  5
4E
102
{ACAD_REACTORS
330
3A
102
}
330
3A
100
AcDbScale
 70
     0
300
1/32" = 1'-0"
140
0.03125
141
12.0
290
     0
  0
SCALE
  5
4F
102
{ACAD_REACTORS
330
3A
102
}
330
3A
100
AcDbScale
 70
     0
300
1/16" = 1'-0"
140
0.0625
141
12.0
290
     0
  0
SCALE
  5
50
102
{ACAD_REACTORS
330
3A
102
}
330
3A
100
AcDbScale
 70
     0
300
3/32" = 1'-0"
140
0.09375
141
12.0
290
     0
  0
SCALE
  5
51
102
{ACAD_REACTORS
330
3A
102
}
330
3A
100
AcDbScale
 70
     0
300
1/8" = 1'-0"
140
0.125
141
12.0
290
     0
  0
SCALE
  5
52
102
{ACAD_REACTORS
330
3A
102
}
330
3A
100
AcDbScale
 70
     0
300
3/16" = 1'-0"
140
0.1875
141
12.0
290
     0
  0
SCALE
  5
53
102
{ACAD_REACTORS
330
3A
102
}
330
3A
100
AcDbScale
 70
     0
300
1/4" = 1'-0"
140
0.25
141
12.0
290
     0
  0
SCALE
  5
54
102
{ACAD_REACTORS
330
3A
102
}
330
3A
100
AcDbScale
 70
     0
300
3/8" = 1'-0"
140
0.375
141
12.0
290
     0
  0
SCALE
  5
55
102
{ACAD_REACTORS
330
3A
102
}
330
3A
100
AcDbScale
 70
     0
300
1/2" = 1'-0"
140
0.5
141
12.0
290
     0
  0
SCALE
  5
56
102
{ACAD_REACTORS
330
3A
102
}
330
3A
100
AcDbScale
 70
     0
300
3/4" = 1'-0"
140
0.75
141
12.0
290
     0
  0
SCALE
  5
57
102
{ACAD_REACTORS
330
3A
102
}
330
3A
100
AcDbScale
 70
     0
300
1" = 1'-0"
140
1.0
141
12.0
290
     0
  0
SCALE
  5
58
102
{ACAD_REACTORS
330
3A
102
}
330
3A
100
AcDbScale
 70
     0
300
1-1/2" = 1'-0"
140
1.5
141
12.0
290
     0
  0
SCALE
  5
59
102
{ACAD_REACTORS
330
3A
102
}
330
3A
100
AcDbScale
 70
     0
300
3" = 1'-0"
140
3.0
141
12.0
290
     0
  0
SCALE
  5
5A
102
{ACAD_REACTORS
330
3A
102
}
330
3A
100
AcDbScale
 70
     0
300
6" = 1'-0"
140
6.0
141
12.0
290
     0
  0
SCALE
  5
5B
102
{ACAD_REACTORS
330
3A
102
}
330
3A
100
AcDbScale
 70
     0
300
1'-0" = 1'-0"
140
12.0
141
12.0
290
     0
  0
TABLESTYLE
  5
6D
102
{ACAD_XDICTIONARY
360
161
102
}
102
{ACAD_REACTORS
330
6C
102
}
330
6C
100
AcDbTableStyle
  3
Standard
 70
     0
 71
     0
 40
1.5
 41
1.5
280
     0
281
     0
  7
STANDARD
140
4.5
170
     2
 62
     0
 63
     7
283
     0
274
    -2
284
     1
 64
     0
275
    -2
285
     1
 65
     0
276
    -2
286
     1
 66
     0
277
    -2
287
     1
 67
     0
278
    -2
288
     1
 68
     0
279
    -2
289
     1
 69
     0
  7
STANDARD
140
6.0
170
     5
 62
     0
 63
     7
283
     0
274
    -2
284
     1
 64
     0
275
    -2
285
     1
 65
     0
276
    -2
286
     1
 66
     0
277
    -2
287
     1
 67
     0
278
    -2
288
     1
 68
     0
279
    -2
289
     1
 69
     0
  7
STANDARD
140
4.5
170
     5
 62
     0
 63
     7
283
     0
274
    -2
284
     1
 64
     0
275
    -2
285
     1
 65
     0
276
    -2
286
     1
 66
     0
277
    -2
287
     1
 67
     0
278
    -2
288
     1
 68
     0
279
    -2
289
     1
 69
     0
  0
VISUALSTYLE
  5
2F
102
{ACAD_REACTORS
330
29
102
}
330
29
100
AcDbVisualStyle
  2
2dWireframe
 70
     4
 71
     0
 72
     2
 73
     0
 90
        0
 40
-0.6
 41
-30.0
 62
     5
 63
     7
 74
     1
 91
        4
 64
     7
 65
   257
 75
     1
175
     1
 42
1.0
 92
        0
 66
   257
 43
1.0
 76
     1
 77
     6
 78
     2
 67
     7
 79
     5
170
     0
171
     0
290
     0
174
     0
 93
        1
 44
0.0
173
     0
291
     0
 45
0.0
1001
ACAD
1000
AcDbSavedByObjectVersion
1070
     0
1000
AcDbSavedByObjectVersion
1070
     0
1000
AcDbSavedByObjectVersion
1070
     0
1000
AcDbSavedByObjectVersion
1070
     0
  0
VISUALSTYLE
  5
31
102
{ACAD_REACTORS
330
29
102
}
330
29
100
AcDbVisualStyle
  2
3D Hidden
 70
     6
 71
     1
 72
     2
 73
     2
 90
        0
 40
-0.6
 41
-30.0
 62
     5
 63
     7
 74
     2
 91
        2
 64
     7
 65
   257
 75
     2
175
     1
 42
40.0
 92
        0
 66
   257
 43
1.0
 76
     1
 77
     6
 78
     2
 67
     7
 79
     3
170
     0
171
     0
290
     0
174
     0
 93
        1
 44
0.0
173
     0
291
     0
 45
0.0
1001
ACAD
1000
AcDbSavedByObjectVersion
1070
     0
1000
AcDbSavedByObjectVersion
1070
     0
1000
AcDbSavedByObjectVersion
1070
     0
1000
AcDbSavedByObjectVersion
1070
     0
  0
VISUALSTYLE
  5
30
102
{ACAD_REACTORS
330
29
102
}
330
29
100
AcDbVisualStyle
  2
3dWireframe
 70
     5
 71
     0
 72
     2
 73
     0
 90
        0
 40
-0.6
 41
-30.0
 62
     5
 63
     7
 74
     1
 91
        4
 64
     7
 65
   257
 75
     1
175
     1
 42
1.0
 92
        0
 66
   257
 43
1.0
 76
     1
 77
     6
 78
     2
 67
     7
 79
     5
170
     0
171
     0
290
     0
174
     0
 93
        1
 44
0.0
173
     0
291
     0
 45
0.0
1001
ACAD
1000
AcDbSavedByObjectVersion
1070
     0
1000
AcDbSavedByObjectVersion
1070
     0
1000
AcDbSavedByObjectVersion
1070
     0
1000
AcDbSavedByObjectVersion
1070
     0
  0
VISUALSTYLE
  5
2E
102
{ACAD_REACTORS
330
29
102
}
330
29
100
AcDbVisualStyle
  2
Basic
 70
     7
 71
     1
 72
     0
 73
     1
 90
        0
 40
-0.6
 41
-30.0
 62
     5
 63
     7
 74
     0
 91
        4
 64
     7
 65
   257
 75
     1
175
     1
 42
1.0
 92
        8
 66
     7
 43
1.0
 76
     1
 77
     6
 78
     2
 67
     7
 79
     5
170
     0
171
     0
290
     0
174
     0
 93
        1
 44
0.0
173
     0
291
     1
 45
0.0
1001
ACAD
1000
AcDbSavedByObjectVersion
1070
     0
1000
AcDbSavedByObjectVersion
1070
     0
1000
AcDbSavedByObjectVersion
1070
     0
1000
AcDbSavedByObjectVersion
1070
     0
  0
VISUALSTYLE
  5
35
102
{ACAD_REACTORS
330
29
102
}
330
29
100
AcDbVisualStyle
  2
Brighten
 70
    12
 71
     2
 72
     2
 73
     0
 90
        0
 40
-0.6
 41
-30.0
 62
     5
 63
     7
 74
     1
 91
        4
 64
     7
 65
   257
 75
     1
175
     1
 42
1.0
 92
        8
 66
     7
 43
1.0
 76
     1
 77
     6
 78
     2
 67
     7
 79
     5
170
     0
171
     0
290
     0
174
     0
 93
        1
 44
50.0
173
     0
291
     1
 45
0.0
1001
ACAD
1000
AcDbSavedByObjectVersion
1070
     0
1000
AcDbSavedByObjectVersion
1070
     0
1000
AcDbSavedByObjectVersion
1070
     0
1000
AcDbSavedByObjectVersion
1070
     0
  0
VISUALSTYLE
  5
39
102
{ACAD_REACTORS
330
29
102
}
330
29
100
AcDbVisualStyle
  2
ColorChange
 70
    16
 71
     2
 72
     2
 73
     3
 90
        0
 40
-0.6
 41
-30.0
 62
     5
 63
     8
 74
     1
 91
        4
 64
     7
 65
   257
 75
     1
175
     1
 42
1.0
 92
        8
 66
     8
 43
1.0
 76
     1
 77
     6
 78
     2
 67
     7
 79
     5
170
     0
171
     0
290
     0
174
     0
 93
        1
 44
0.0
173
     0
291
     1
 45
0.0
1001
ACAD
1000
AcDbSavedByObjectVersion
1070
     0
1000
AcDbSavedByObjectVersion
1070
     0
1000
AcDbSavedByObjectVersion
1070
     0
1000
AcDbSavedByObjectVersion
1070
     0
  0
VISUALSTYLE
  5
32
102
{ACAD_REACTORS
330
29
102
}
330
29
100
AcDbVisualStyle
  2
Conceptual
 70
     9
 71
     3
 72
     2
 73
     0
 90
        0
 40
-0.6
 41
-30.0
 62
     5
 63
     7
 74
     2
 91
        2
 64
     7
 65
   257
 75
     1
175
     1
 42
40.0
 92
        8
 66
     7
 43
1.0
 76
     1
 77
     6
 78
     2
 67
     7
 79
     3
170
     0
171
     0
290
     0
174
     0
 93
        1
 44
0.0
173
     0
291
     0
 45
0.0
1001
ACAD
1000
AcDbSavedByObjectVersion
1070
     0
1000
AcDbSavedByObjectVersion
1070
     0
1000
AcDbSavedByObjectVersion
1070
     0
1000
AcDbSavedByObjectVersion
1070
     0
  0
VISUALSTYLE
  5
34
102
{ACAD_REACTORS
330
29
102
}
330
29
100
AcDbVisualStyle
  2
Dim
 70
    11
 71
     2
 72
     2
 73
     0
 90
        0
 40
-0.6
 41
-30.0
 62
     5
 63
     7
 74
     1
 91
        4
 64
     7
 65
   257
 75
     1
175
     1
 42
1.0
 92
        8
 66
     7
 43
1.0
 76
     1
 77
     6
 78
     2
 67
     7
 79
     5
170
     0
171
     0
290
     0
174
     0
 93
        1
 44
-50.0
173
     0
291
     1
 45
0.0
1001
ACAD
1000
AcDbSavedByObjectVersion
1070
     0
1000
AcDbSavedByObjectVersion
1070
     0
1000
AcDbSavedByObjectVersion
1070
     0
1000
AcDbSavedByObjectVersion
1070
     0
  0
VISUALSTYLE
  5
38
102
{ACAD_REACTORS
330
29
102
}
330
29
100
AcDbVisualStyle
  2
Facepattern
 70
    15
 71
     2
 72
     2
 73
     0
 90
        0
 40
-0.6
 41
-30.0
 62
     5
 63
     7
 74
     1
 91
        4
 64
     7
 65
   257
 75
     1
175
     1
 42
1.0
 92
        8
 66
     7
 43
1.0
 76
     1
 77
     6
 78
     2
 67
     7
 79
     5
170
     0
171
     0
290
     0
174
     0
 93
        1
 44
0.0
173
     0
291
     1
 45
0.0
1001
ACAD
1000
AcDbSavedByObjectVersion
1070
     0
1000
AcDbSavedByObjectVersion
1070
     0
1000
AcDbSavedByObjectVersion
1070
     0
1000
AcDbSavedByObjectVersion
1070
     0
  0
VISUALSTYLE
  5
2A
102
{ACAD_REACTORS
330
29
102
}
330
29
100
AcDbVisualStyle
  2
Flat
 70
     0
 71
     2
 72
     1
 73
     1
 90
        2
 40
-0.6
 41
30.0
 62
     5
 63
     7
 74
     0
 91
        4
 64
     7
 65
   257
 75
     1
175
     1
 42
1.0
 92
        8
 66
     7
 43
1.0
 76
     1
 77
     6
 78
     2
 67
     7
 79
     5
170
     0
171
     0
290
     0
174
     0
 93
       13
 44
0.0
173
     0
291
     1
 45
0.0
1001
ACAD
1000
AcDbSavedByObjectVersion
1070
     0
1000
AcDbSavedByObjectVersion
1070
     0
1000
AcDbSavedByObjectVersion
1070
     0
1000
AcDbSavedByObjectVersion
1070
     0
  0
VISUALSTYLE
  5
2B
102
{ACAD_REACTORS
330
29
102
}
330
29
100
AcDbVisualStyle
  2
FlatWithEdges
 70
     1
 71
     2
 72
     1
 73
     1
 90
        2
 40
-0.6
 41
30.0
 62
     5
 63
     7
 74
     1
 91
        4
 64
     7
 65
   257
 75
     1
175
     1
 42
1.0
 92
        0
 66
   257
 43
1.0
 76
     1
 77
     6
 78
     2
 67
     7
 79
     5
170
     0
171
     0
290
     0
174
     0
 93
       13
 44
0.0
173
     0
291
     1
 45
0.0
1001
ACAD
1000
AcDbSavedByObjectVersion
1070
     0
1000
AcDbSavedByObjectVersion
1070
     0
1000
AcDbSavedByObjectVersion
1070
     0
1000
AcDbSavedByObjectVersion
1070
     0
  0
VISUALSTYLE
  5
2C
102
{ACAD_REACTORS
330
29
102
}
330
29
100
AcDbVisualStyle
  2
Gouraud
 70
     2
 71
     2
 72
     2
 73
     1
 90
        2
 40
-0.6
 41
30.0
 62
     5
 63
     7
 74
     0
 91
        4
 64
     7
 65
   257
 75
     1
175
     1
 42
1.0
 92
        0
 66
     7
 43
1.0
 76
     1
 77
     6
 78
     2
 67
     7
 79
     5
170
     0
171
     0
290
     0
174
     0
 93
       13
 44
0.0
173
     0
291
     1
 45
0.0
1001
ACAD
1000
AcDbSavedByObjectVersion
1070
     0
1000
AcDbSavedByObjectVersion
1070
     0
1000
AcDbSavedByObjectVersion
1070
     0
1000
AcDbSavedByObjectVersion
1070
     0
  0
VISUALSTYLE
  5
2D
102
{ACAD_REACTORS
330
29
102
}
330
29
100
AcDbVisualStyle
  2
GouraudWithEdges
 70
     3
 71
     2
 72
     2
 73
     1
 90
        2
 40
-0.6
 41
30.0
 62
     5
 63
     7
 74
     1
 91
        4
 64
     7
 65
   257
 75
     1
175
     1
 42
1.0
 92
        0
 66
   257
 43
1.0
 76
     1
 77
     6
 78
     2
 67
     7
 79
     5
170
     0
171
     0
290
     0
174
     0
 93
       13
 44
0.0
173
     0
291
     1
 45
0.0
1001
ACAD
1000
AcDbSavedByObjectVersion
1070
     0
1000
AcDbSavedByObjectVersion
1070
     0
1000
AcDbSavedByObjectVersion
1070
     0
1000
AcDbSavedByObjectVersion
1070
     0
  0
VISUALSTYLE
  5
37
102
{ACAD_REACTORS
330
29
102
}
330
29
100
AcDbVisualStyle
  2
Linepattern
 70
    14
 71
     2
 72
     2
 73
     0
 90
        0
 40
-0.6
 41
-30.0
 62
     5
 63
     7
 74
     1
 91
        4
 64
     7
 65
   257
 75
     7
175
     7
 42
1.0
 92
        8
 66
     7
 43
1.0
 76
     1
 77
     6
 78
     2
 67
     7
 79
     5
170
     0
171
     0
290
     0
174
     0
 93
        1
 44
0.0
173
     0
291
     1
 45
0.0
1001
ACAD
1000
AcDbSavedByObjectVersion
1070
     0
1000
AcDbSavedByObjectVersion
1070
     0
1000
AcDbSavedByObjectVersion
1070
     0
1000
AcDbSavedByObjectVersion
1070
     0
  0
VISUALSTYLE
  5
33
102
{ACAD_REACTORS
330
29
102
}
330
29
100
AcDbVisualStyle
  2
Realistic
 70
     8
 71
     2
 72
     2
 73
     0
 90
        0
 40
-0.6
 41
-30.0
 62
     5
 63
     7
 74
     1
 91
        0
 64
     7
 65
   257
 75
     1
175
     1
 42
1.0
 92
        8
 66
     8
 43
1.0
 76
     1
 77
     6
 78
     2
 67
     7
 79
     5
170
     0
171
     0
290
     0
174
     0
 93
       13
 44
0.0
173
     0
291
     0
 45
0.0
1001
ACAD
1000
AcDbSavedByObjectVersion
1070
     0
1000
AcDbSavedByObjectVersion
1070
     0
1000
AcDbSavedByObjectVersion
1070
     0
1000
AcDbSavedByObjectVersion
1070
     0
  0
VISUALSTYLE
  5
36
102
{ACAD_REACTORS
330
29
102
}
330
29
100
AcDbVisualStyle
  2
Thicken
 70
    13
 71
     2
 72
     2
 73
     0
 90
        0
 40
-0.6
 41
-30.0
 62
     5
 63
     7
 74
     1
 91
        4
 64
     7
 65
   257
 75
     1
175
     1
 42
1.0
 92
       12
 66
     7
 43
1.0
 76
     1
 77
     6
 78
     2
 67
     7
 79
     5
170
     0
171
     0
290
     0
174
     0
 93
        1
 44
0.0
173
     0
291
     1
 45
0.0
1001
ACAD
1000
AcDbSavedByObjectVersion
1070
     0
1000
AcDbSavedByObjectVersion
1070
     0
1000
AcDbSavedByObjectVersion
1070
     0
1000
AcDbSavedByObjectVersion
1070
     0
  0
DICTIONARYVAR
  5
167
102
{ACAD_REACTORS
330
164
102
}
330
164
100
DictionaryVariables
280
     0
  1
1:1
  0
DICTIONARYVAR
  5
166
102
{ACAD_REACTORS
330
164
102
}
330
164
100
DictionaryVariables
280
     0
  1
STANDARD
  0
DICTIONARYVAR
  5
165
102
{ACAD_REACTORS
330
164
102
}
330
164
100
DictionaryVariables
280
     0
  1
STANDARD
  0
DICTIONARYVAR
  5
240
102
{ACAD_REACTORS
330
164
102
}
330
164
100
DictionaryVariables
280
     0
  1
2
  0
DICTIONARYVAR
  5
23F
102
{ACAD_REACTORS
330
164
102
}
330
164
100
DictionaryVariables
280
     0
  1
1
  0
DICTIONARYVAR
  5
23E
102
{ACAD_REACTORS
330
164
102
}
330
164
100
DictionaryVariables
280
     0
  1
0
  0
DICTIONARYVAR
  5
23C
102
{ACAD_REACTORS
330
164
102
}
330
164
100
DictionaryVariables
280
     0
  1
2
  0
DICTIONARYVAR
  5
23B
102
{ACAD_REACTORS
330
164
102
}
330
164
100
DictionaryVariables
280
     0
  1
1
  0
DICTIONARYVAR
  5
23D
102
{ACAD_REACTORS
330
164
102
}
330
164
100
DictionaryVariables
280
     0
  1
127
  0
DICTIONARY
  5
DE
102
{ACAD_REACTORS
330
DC
102
}
330
DC
100
AcDbDictionary
281
     1
  0
XRECORD
  5
F6
102
{ACAD_REACTORS
330
DC
102
}
330
DC
100
AcDbXrecord
280
     1
 90
-1023410169
  0
XRECORD
  5
23A
102
{ACAD_REACTORS
330
239
102
}
330
239
100
AcDbXrecord
280
     1
  0
DICTIONARY
  5
1107
330
78
100
AcDbDictionary
280
     1
281
     1
  3
ACAD_XREC_ROUNDTRIP
360
1108
  0
DICTIONARY
  5
1105
330
74
100
AcDbDictionary
280
     1
281
     1
  3
ACAD_XREC_ROUNDTRIP
360
1106
  0
DICTIONARY
  5
1109
330
7C
100
AcDbDictionary
280
     1
281
     1
  3
ACAD_XREC_ROUNDTRIP
360
110A
  0
DICTIONARY
  5
1A
330
19
100
AcDbDictionary
280
     1
281
     1
  3
ACAD_XREC_ROUNDTRIP
360
246
  3
BUMPTILE
360
1C
  3
DIFFUSETILE
360
1B
  3
OPACITYTILE
360
1F
  3
REFLECTIONTILE
360
1E
  3
REFRACTIONTILE
360
20
  3
SPECULARTILE
360
1D
  0
DICTIONARY
  5
12
330
11
100
AcDbDictionary
280
     1
281
     1
  3
ACAD_XREC_ROUNDTRIP
360
245
  3
BUMPTILE
360
14
  3
DIFFUSETILE
360
13
  3
OPACITYTILE
360
17
  3
REFLECTIONTILE
360
16
  3
REFRACTIONTILE
360
18
  3
SPECULARTILE
360
15
  0
DICTIONARY
  5
22
330
21
100
AcDbDictionary
280
     1
281
     1
  3
ACAD_XREC_ROUNDTRIP
360
247
  3
BUMPTILE
360
24
  3
DIFFUSETILE
360
23
  3
OPACITYTILE
360
27
  3
REFLECTIONTILE
360
26
  3
REFRACTIONTILE
360
28
  3
SPECULARTILE
360
25
  0
DICTIONARY
  5
161
330
6D
100
AcDbDictionary
280
     1
281
     1
  3
ACAD_ROUNDTRIP_2008_TABLESTYLE_CELLSTYLEMAP
360
10FF
  3
ACAD_XREC_ROUNDTRIP
360
1104
  0
XRECORD
  5
1108
102
{ACAD_REACTORS
330
1107
102
}
330
1107
100
AcDbXrecord
280
     1
102
SHADEPLOT
 70
     0
102
SHADEPLOTRESLEVEL
 70
     2
102
SHADEPLOTCUSTOMDPI
 70
   300
  0
XRECORD
  5
1106
102
{ACAD_REACTORS
330
1105
102
}
330
1105
100
AcDbXrecord
280
     1
102
SHADEPLOT
 70
     0
102
SHADEPLOTRESLEVEL
 70
     2
102
SHADEPLOTCUSTOMDPI
 70
   300
  0
XRECORD
  5
110A
102
{ACAD_REACTORS
330
1109
102
}
330
1109
100
AcDbXrecord
280
     1
102
SHADEPLOT
 70
     0
102
SHADEPLOTRESLEVEL
 70
     2
102
SHADEPLOTCUSTOMDPI
 70
   300
  0
XRECORD
  5
246
102
{ACAD_REACTORS
330
1A
102
}
330
1A
100
AcDbXrecord
280
     1
102
MATERIAL
148
0.0
149
0.0
149
0.0
 93
        0
 94
      127
282
     0
 72
     0
 77
     0
171
     0
175
     0
179
     0
273
     0
  0
XRECORD
  5
1C
102
{ACAD_REACTORS
330
1A
102
}
330
1A
100
AcDbXrecord
280
     1
270
     1
271
     1
  0
XRECORD
  5
1B
102
{ACAD_REACTORS
330
1A
102
}
330
1A
100
AcDbXrecord
280
     1
270
     1
271
     1
  0
XRECORD
  5
1F
102
{ACAD_REACTORS
330
1A
102
}
330
1A
100
AcDbXrecord
280
     1
270
     1
271
     1
  0
XRECORD
  5
1E
102
{ACAD_REACTORS
330
1A
102
}
330
1A
100
AcDbXrecord
280
     1
270
     1
271
     1
  0
XRECORD
  5
20
102
{ACAD_REACTORS
330
1A
102
}
330
1A
100
AcDbXrecord
280
     1
270
     1
271
     1
  0
XRECORD
  5
1D
102
{ACAD_REACTORS
330
1A
102
}
330
1A
100
AcDbXrecord
280
     1
270
     1
271
     1
  0
XRECORD
  5
245
102
{ACAD_REACTORS
330
12
102
}
330
12
100
AcDbXrecord
280
     1
102
MATERIAL
148
0.0
149
0.0
149
0.0
 93
        0
 94
      127
282
     0
 72
     0
 77
     0
171
     0
175
     0
179
     0
273
     0
  0
XRECORD
  5
14
102
{ACAD_REACTORS
330
12
102
}
330
12
100
AcDbXrecord
280
     1
270
     1
271
     1
  0
XRECORD
  5
13
102
{ACAD_REACTORS
330
12
102
}
330
12
100
AcDbXrecord
280
     1
270
     1
271
     1
  0
XRECORD
  5
17
102
{ACAD_REACTORS
330
12
102
}
330
12
100
AcDbXrecord
280
     1
270
     1
271
     1
  0
XRECORD
  5
16
102
{ACAD_REACTORS
330
12
102
}
330
12
100
AcDbXrecord
280
     1
270
     1
271
     1
  0
XRECORD
  5
18
102
{ACAD_REACTORS
330
12
102
}
330
12
100
AcDbXrecord
280
     1
270
     1
271
     1
  0
XRECORD
  5
15
102
{ACAD_REACTORS
330
12
102
}
330
12
100
AcDbXrecord
280
     1
270
     1
271
     1
  0
XRECORD
  5
247
102
{ACAD_REACTORS
330
22
102
}
330
22
100
AcDbXrecord
280
     1
102
MATERIAL
148
0.0
149
0.0
149
0.0
 93
        0
 94
      127
282
     0
 72
     0
 77
     0
171
     0
175
     0
179
     0
273
     0
  0
XRECORD
  5
24
102
{ACAD_REACTORS
330
22
102
}
330
22
100
AcDbXrecord
280
     1
270
     1
271
     1
  0
XRECORD
  5
23
102
{ACAD_REACTORS
330
22
102
}
330
22
100
AcDbXrecord
280
     1
270
     1
271
     1
  0
XRECORD
  5
27
102
{ACAD_REACTORS
330
22
102
}
330
22
100
AcDbXrecord
280
     1
270
     1
271
     1
  0
XRECORD
  5
26
102
{ACAD_REACTORS
330
22
102
}
330
22
100
AcDbXrecord
280
     1
270
     1
271
     1
  0
XRECORD
  5
28
102
{ACAD_REACTORS
330
22
102
}
330
22
100
AcDbXrecord
280
     1
270
     1
271
     1
  0
XRECORD
  5
25
102
{ACAD_REACTORS
330
22
102
}
330
22
100
AcDbXrecord
280
     1
270
     1
271
     1
  0
CELLSTYLEMAP
  5
10FF
102
{ACAD_REACTORS
330
161
102
}
330
161
100
AcDbCellStyleMap
 90
        3
300
CELLSTYLE
  1
TABLEFORMAT_BEGIN
 90
        5
170
     1
 91
        0
 92
    32768
 62
   257
 93
        1
300
CONTENTFORMAT
  1
CONTENTFORMAT_BEGIN
 90
        0
 91
        0
 92
      512
 93
        0
300

 40
0.0
140
1.0
 94
        5
 62
     0
340
5D
144
6.0
309
CONTENTFORMAT_END
171
     1
301
MARGIN
  1
CELLMARGIN_BEGIN
 40
1.5
 40
1.5
 40
1.5
 40
1.5
 40
0.18
 40
0.18
309
CELLMARGIN_END
 94
        6
 95
        1
302
GRIDFORMAT
  1
GRIDFORMAT_BEGIN
 90
        0
 91
        1
 62
     0
 92
       -2
340
0
 93
        0
 40
1.125
309
GRIDFORMAT_END
 95
        2
302
GRIDFORMAT
  1
GRIDFORMAT_BEGIN
 90
        0
 91
        1
 62
     0
 92
       -2
340
0
 93
        0
 40
1.125
309
GRIDFORMAT_END
 95
        4
302
GRIDFORMAT
  1
GRIDFORMAT_BEGIN
 90
        0
 91
        1
 62
     0
 92
       -2
340
0
 93
        0
 40
1.125
309
GRIDFORMAT_END
 95
        8
302
GRIDFORMAT
  1
GRIDFORMAT_BEGIN
 90
        0
 91
        1
 62
     0
 92
       -2
340
0
 93
        0
 40
1.125
309
GRIDFORMAT_END
 95
       16
302
GRIDFORMAT
  1
GRIDFORMAT_BEGIN
 90
        0
 91
        1
 62
     0
 92
       -2
340
0
 93
        0
 40
1.125
309
GRIDFORMAT_END
 95
       32
302
GRIDFORMAT
  1
GRIDFORMAT_BEGIN
 90
        0
 91
        1
 62
     0
 92
       -2
340
0
 93
        0
 40
1.125
309
GRIDFORMAT_END
309
TABLEFORMAT_END
  1
CELLSTYLE_BEGIN
 90
        1
 91
        1
300
_TITLE
309
CELLSTYLE_END
300
CELLSTYLE
  1
TABLEFORMAT_BEGIN
 90
        5
170
     1
 91
        0
 92
        0
 62
   257
 93
        1
300
CONTENTFORMAT
  1
CONTENTFORMAT_BEGIN
 90
        0
 91
        0
 92
      512
 93
        0
300

 40
0.0
140
1.0
 94
        5
 62
     0
340
5D
144
4.5
309
CONTENTFORMAT_END
171
     1
301
MARGIN
  1
CELLMARGIN_BEGIN
 40
1.5
 40
1.5
 40
1.5
 40
1.5
 40
0.18
 40
0.18
309
CELLMARGIN_END
 94
        6
 95
        1
302
GRIDFORMAT
  1
GRIDFORMAT_BEGIN
 90
        0
 91
        1
 62
     0
 92
       -2
340
0
 93
        0
 40
1.125
309
GRIDFORMAT_END
 95
        2
302
GRIDFORMAT
  1
GRIDFORMAT_BEGIN
 90
        0
 91
        1
 62
     0
 92
       -2
340
0
 93
        0
 40
1.125
309
GRIDFORMAT_END
 95
        4
302
GRIDFORMAT
  1
GRIDFORMAT_BEGIN
 90
        0
 91
        1
 62
     0
 92
       -2
340
0
 93
        0
 40
1.125
309
GRIDFORMAT_END
 95
        8
302
GRIDFORMAT
  1
GRIDFORMAT_BEGIN
 90
        0
 91
        1
 62
     0
 92
       -2
340
0
 93
        0
 40
1.125
309
GRIDFORMAT_END
 95
       16
302
GRIDFORMAT
  1
GRIDFORMAT_BEGIN
 90
        0
 91
        1
 62
     0
 92
       -2
340
0
 93
        0
 40
1.125
309
GRIDFORMAT_END
 95
       32
302
GRIDFORMAT
  1
GRIDFORMAT_BEGIN
 90
        0
 91
        1
 62
     0
 92
       -2
340
0
 93
        0
 40
1.125
309
GRIDFORMAT_END
309
TABLEFORMAT_END
  1
CELLSTYLE_BEGIN
 90
        2
 91
        1
300
_HEADER
309
CELLSTYLE_END
300
CELLSTYLE
  1
TABLEFORMAT_BEGIN
 90
        5
170
     1
 91
        0
 92
        0
 62
   257
 93
        1
300
CONTENTFORMAT
  1
CONTENTFORMAT_BEGIN
 90
        0
 91
        0
 92
      512
 93
        0
300

 40
0.0
140
1.0
 94
        2
 62
     0
340
5D
144
4.5
309
CONTENTFORMAT_END
171
     1
301
MARGIN
  1
CELLMARGIN_BEGIN
 40
1.5
 40
1.5
 40
1.5
 40
1.5
 40
0.18
 40
0.18
309
CELLMARGIN_END
 94
        6
 95
        1
302
GRIDFORMAT
  1
GRIDFORMAT_BEGIN
 90
        0
 91
        1
 62
     0
 92
       -2
340
0
 93
        0
 40
1.125
309
GRIDFORMAT_END
 95
        2
302
GRIDFORMAT
  1
GRIDFORMAT_BEGIN
 90
        0
 91
        1
 62
     0
 92
       -2
340
0
 93
        0
 40
1.125
309
GRIDFORMAT_END
 95
        4
302
GRIDFORMAT
  1
GRIDFORMAT_BEGIN
 90
        0
 91
        1
 62
     0
 92
       -2
340
0
 93
        0
 40
1.125
309
GRIDFORMAT_END
 95
        8
302
GRIDFORMAT
  1
GRIDFORMAT_BEGIN
 90
        0
 91
        1
 62
     0
 92
       -2
340
0
 93
        0
 40
1.125
309
GRIDFORMAT_END
 95
       16
302
GRIDFORMAT
  1
GRIDFORMAT_BEGIN
 90
        0
 91
        1
 62
     0
 92
       -2
340
0
 93
        0
 40
1.125
309
GRIDFORMAT_END
 95
       32
302
GRIDFORMAT
  1
GRIDFORMAT_BEGIN
 90
        0
 91
        1
 62
     0
 92
       -2
340
0
 93
        0
 40
1.125
309
GRIDFORMAT_END
309
TABLEFORMAT_END
  1
CELLSTYLE_BEGIN
 90
        3
 91
        2
300
_DATA
309
CELLSTYLE_END
  0
XRECORD
  5
1104
102
{ACAD_REACTORS
330
161
102
}
330
161
100
AcDbXrecord
280
     1
102
ACAD_ROUNDTRIP_PRE2007_TABLESTYLE
 90
      512
 91
        0
  1

 92
      512
 93
        0
  2

 94
      512
 95
        0
  3

  0
ENDSEC
  0
EOF
